img image001 image001 image001 image001 image001 image001 image001 image001 image001 image001 image001 image001 image001 image001 image001

Planets Sun Sun Sun
Статистика раздачи
Автор: Nickolas3434 | Размер: 744.76 МБ | Добавлен: 16 фев 2015
Раздают: 11    Качают: 8
Скачать торрент
Скачать торрент
Описание торрента

СообщениеДобавлено: 16 фев 2015 

Страна: СССР
Производство: Союздетфильм
Жанр: драма, военный
Год выпуска: 1941
Продолжительность: 00:59:26
Перевод: Не требуется
Cубтитры: нет
Оригинальная аудиодорожка: русский
Режиссер: Евгений Шнейдер
В ролях:
Николай Крючков, Александр Гречаный, Павел Шпрингфельд, Александр Баранов, Петр Соболевский, Петр Савин, Николай Рыжов, Николай Ярочкин, Георгий Юматов...
Описание:
Фильм рассказывает о мужестве и героизме советских воинов, проявленных в годы войны с Финляндией (1939- 1940). Группа советских разведчиков во главе с красноармейцем Войковым получает задание пробраться в тыл врага — на хутор, временно оставленный белофиннами...





Источник: DVD5 R5
Качество видео: DVDRip
Формат видео: AVI
Видео: 672x512 (4:3), 25 fps, XviD ~ 1550 kbps avg, 0.180 bit/pixel
Аудио: 48 kHz, Dolby Digital AC3 2.0, 192 kbps
Раздача от:
Общее
Полное имя : V.tylu.vraga.1941.DVDRip_[New-team]_by_AVP_Studio.avi
Формат : AVI
Формат/Информация : Audio Video Interleave
Размер файла : 745 Мбайт
Продолжительность : 59 м.
Общий поток : 1752 Кбит/сек
Программа кодирования : VirtualDubModRus 1.5.10.2 (build 2542/release)
Библиотека кодирования : VirtualDubMod build 2542/release
Видео
Идентификатор : 0
Формат : MPEG-4 Visual
Профиль формата : Advanced Simple@L5
Параметр BVOP формата : 1
Параметр QPel формата : Нет
Параметр GMC формата : Без точки перехода
Параметр матрицы формата : Выборочная
Идентификатор кодека : XVID
Идентификатор кодека/Подсказка : XviD
Продолжительность : 59 м.
Битрейт : 1550 Кбит/сек
Ширина : 672 пикселя
Высота : 512 пикселей
Соотношение сторон : 4:3
Частота кадров : 25,000 кадров/сек
Цветовое пространство : YUV
Субдискретизация насыщенности : 4:2:0
Битовая глубина : 8 бит
Тип развёртки : Прогрессивная
Метод сжатия : С потерями
Бит/(Пиксели*Кадры) : 0.180
Размер потока : 659 Мбайт (88%)
Библиотека кодирования : XviD 73
Аудио
Идентификатор : 1
Формат : AC-3
Формат/Информация : Audio Coding 3
Расширение режима : CM (complete main)
Параметр Endianness формата : Big
Идентификатор кодека : 2000
Продолжительность : 59 м.
Вид битрейта : Постоянный
Битрейт : 192 Кбит/сек
Каналы : 2 канала
Расположение каналов : Front: L R
Частота : 48,0 КГц
Битовая глубина : 16 бит
Метод сжатия : С потерями
Размер потока : 81,6 Мбайт (11%)
Выравнивание : Разделение по промежуткам
Продолжительность промежутка : 40 мс. (1,00 видеокадр)
Время предзагрузки промежутка : 500 мс





   Похожие торренты   Торрент   Размер 
В этой теме нет новых непрочитанных сообщений. В тылу врага (1941) DVDRip-AVC от New-Team

66 | 15

744.33 МБ

В этой теме нет новых непрочитанных сообщений. Команда восемь: В тылу врага / Seal Team Eight: Behind Enemy Lines (2014) BDRip-AVC от ExKinoRay | Р

313 | 31

2.96 ГБ

В этой теме нет новых непрочитанных сообщений. Команда восемь: В тылу врага / Seal Team Eight: Behind Enemy Lines (2014) HDRip | iTunes

1906 | 867

1.37 ГБ

В этой теме нет новых непрочитанных сообщений. Команда восемь: В тылу врага / Seal Team Eight: Behind Enemy Lines (2014) BDRip-AVC | iPad | P

74 | 37

3.12 ГБ

В этой теме нет новых непрочитанных сообщений. Команда восемь: В тылу врага / Seal Team Eight: Behind Enemy Lines (2014) BDRip от Rulya74 | P

382 | 103

2.05 ГБ

В этой теме нет новых непрочитанных сообщений. Команда восемь: В тылу врага / Seal Team Eight: Behind Enemy Lines (2014) BDRemux 1080p от ExKinoRay | Р

25 | 37

25.59 ГБ

В этой теме нет новых непрочитанных сообщений. Команда восемь: В тылу врага / Seal Team Eight: Behind Enemy Lines (2014) BDRip 1080p от MediaClub | НТВ

375 | 210

7.95 ГБ




Вы не можете начинать темы
Вы не можете отвечать на сообщения
Вы не можете редактировать свои сообщения
Вы не можете удалять свои сообщения
Вы не можете добавлять вложения

Перейти:  
Для Мосгорсуда, Роскомнадзора и рекламодателей: mosgorsud-torrent[собачка]yandex.ru
 Вход
ppkBB3cker v.2 © 2008-2014 @ PPK
[ Time : 0.066s | 17 Queries | GZIP : Off ]

Торрент трекер RUTOR.IN, Не можете зайти на rutor.org? Какой новый адрес рутор? Какое зеркало рутор? Не работает rutor.org и зеркала? Тогда наш торрент специально для вас. Rutor.in неофициальное зеркало rutor. В случае если у Вас заблокирован rutor или вдруг Вы не можете на него зайти, то Вы без труда сможете скачать бесплатно и без рекламы последние новинки кино, игр, сериалов и прочего у нас, на Rutor.in. Не нужно использовать прокси, чтобы зайти на рутор, достаточно воспользоваться нашим ресурсом. Все новые фильмы, игры, сериалы, книги и музыка за 2013 и 2014 годы через торрент бесплатно. Скачивайте фильмы в хорошем качестве, игры для пк, xbox, playstation без регистрации. У нас вы найдете новые Зарубежные сериалы и Русские сериалы 2013, 2014, 2015 годов. Оставайтесь с нами, качайте любимые фильмы, игры, сериалы, книги и музыку.