img image001 image001 image001 image001 image001 image001 image001 image001 image001 image001 image001 image001 image001 image001 image001

Planets Sun Sun Sun
Статистика раздачи
Автор: Nickolas3434 | Размер: 3.88 ГБ | Добавлен: 16 фев 2015
Раздают: 53    Качают: 8
Скачать торрент
Скачать торрент
Описание торрента

СообщениеДобавлено: 16 фев 2015 

Информация о фильме
Оригинальное название: Мамы 3
Год выпуска: 2014
Жанр: Комедия, семейный
Выпущено: Россия, Централ Партнершип
Режиссер: Георгий Малков, Эмиль Никогосян
В ролях: Анастасия Заворотнюк, Ольга Волкова, Мария Сёмкина, Гарик Харламов, Андрей Ургант, Тимур Родригез, Евгений Сморигин, Евгений Шапошников
О фильме: Героини первых двух фильмов отправляются отмечать Новый год в Прагу, однако самолет, на котором они летят, из-за погодных условий садится в маленьком польском городке. Увидев, что в городе не готовят большого и шумного праздника, они решают организовать его самостоятельно.

Файл
Качество: BDRip (720p)
Видео: MPEG-4 AVC, 3888 Кбит/с, 1280x544, 24 кадр/с
Аудио: AC3, 6 ch, 640 Кбит/с, DTS, 6 ch, 1509 Кбит/с
Размер: 3.88 ГБ
Продолжительность: 01:32:00
Язык: Русский
Сохранены оригинальные чаптеры как на Blu-Ray.
Озвучивание - (Лицензия)
x264 [info]: frame I:1269 Avg QP:15.75 size:119845
x264 [info]: frame P:29734 Avg QP:18.27 size: 38658
x264 [info]: frame B:101477 Avg QP:19.46 size: 13594
x264 [info]: consecutive B-frames: 2.1% 2.5% 8.6% 28.2% 19.0% 33.8% 2.9% 0.8% 1.5% 0.7%
x264 [info]: mb I I16..4: 10.5% 70.2% 19.2%
x264 [info]: mb P I16..4: 1.9% 15.7% 2.3% P16..4: 30.5% 32.1% 9.7% 3.1% 0.3% skip: 4.4%
x264 [info]: mb B I16..4: 0.5% 2.2% 0.2% B16..8: 31.7% 20.5% 3.6% direct: 9.1% skip:32.1% L0:41.3% L1:41.1% BI:17.6%
x264 [info]: 8x8 transform intra:76.3% inter:60.4%
x264 [info]: direct mvs spatial:97.8% temporal:2.2%
x264 [info]: coded y,uvDC,uvAC intra: 76.1% 91.2% 79.4% inter: 24.0% 43.0% 26.6%
x264 [info]: i16 v,h,dc,p: 36% 11% 7% 47%
x264 [info]: i8 v,h,dc,ddl,ddr,vr,hd,vl,hu: 12% 8% 13% 8% 11% 12% 11% 12% 13%
x264 [info]: i4 v,h,dc,ddl,ddr,vr,hd,vl,hu: 16% 9% 11% 7% 13% 13% 11% 10% 10%
x264 [info]: i8c dc,h,v,p: 50% 17% 17% 16%
x264 [info]: Weighted P-Frames: Y:4.5% UV:2.5%
x264 [info]: ref P L0: 45.6% 11.3% 19.0% 6.3% 5.8% 3.8% 3.7% 2.0% 2.3% 0.3% 0.0%
x264 [info]: ref B L0: 73.0% 11.9% 5.7% 3.3% 2.5% 2.0% 1.1% 0.4%
x264 [info]: ref B L1: 92.9% 7.1%
x264 [info]: kb/s:3885.56

Общее
Уникальный идентификатор : 207657920357446670364699256525443456737 (0x9C3975F078C89289B1AFF4C794DE5EE1)
Полное имя : D:ЗагрузкиMami.3.2014.x264.BDRip.(720p).ExKinoRay.mkv
Формат : Matroska
Версия формата : Version 2
Размер файла : 3,88 Гбайт
Продолжительность : 1 ч. 32 м.
Общий поток : 6038 Кбит/сек
Название фильма : Мамы 3.2014.Rip by: ollan
Дата кодирования : UTC 2015-02-15 11:21:59
Программа кодирования : mkvmerge v5.6.0 ('Kenya Kane') built on May 27 2012 16:44:04
Библиотека кодирования : libebml v1.2.3 + libmatroska v1.3.0
Видео
Идентификатор : 1
Формат : AVC
Формат/Информация : Advanced Video Codec
Профиль формата : High@L4.1
Параметр CABAC формата : Да
Параметр ReFrames формата : 9 кадров
Идентификатор кодека : V_MPEG4/ISO/AVC
Продолжительность : 1 ч. 32 м.
Битрейт : 3888 Кбит/сек
Ширина : 1280 пикселей
Высота : 544 пикселя
Соотношение сторон : 2,35:1
Режим частоты кадров : Постоянный
Частота кадров : 24,000 кадра/сек
Цветовое пространство : YUV
Субдискретизация насыщенности : 4:2:0
Битовая глубина : 8 бит
Тип развёртки : Прогрессивная
Бит/(Пиксели*Кадры) : 0.233
Размер потока : 2,42 Гбайт (62%)
Библиотека кодирования : x264 core 125 r2200 999b753
Настройки программы : cabac=1 / ref=9 / deblock=1:-3:-3 / analyse=0x3:0x133 / me=umh / subme=11 / psy=1 / psy_rd=1.00:0.10 / mixed_ref=1 / me_range=32 / chroma_me=1 / trellis=2 / 8x8dct=1 / cqm=0 / deadzone=21,11 / fast_pskip=0 / chroma_qp_offset=-3 / threads=12 / lookahead_threads=2 / sliced_threads=0 / nr=0 / decimate=0 / interlaced=0 / bluray_compat=0 / constrained_intra=0 / bframes=9 / b_pyramid=2 / b_adapt=2 / b_bias=0 / direct=3 / weightb=1 / open_gop=0 / weightp=2 / keyint=240 / keyint_min=23 / scenecut=40 / intra_refresh=0 / rc=2pass / mbtree=0 / bitrate=3888 / ratetol=1.0 / qcomp=0.60 / qpmin=0 / qpmax=69 / qpstep=4 / cplxblur=20.0 / qblur=0.5 / ip_ratio=1.40 / pb_ratio=1.30 / aq=1:1.00
Язык : Russian
Default : Да
Forced : Нет
Аудио #1
Идентификатор : 2
Формат : AC-3
Формат/Информация : Audio Coding 3
Расширение режима : CM (complete main)
Параметр Endianness формата : Big
Идентификатор кодека : A_AC3
Продолжительность : 1 ч. 32 м.
Вид битрейта : Постоянный
Битрейт : 640 Кбит/сек
Каналы : 6 каналов
Расположение каналов : Front: L C R, Side: L R, LFE
Частота : 48,0 КГц
Битовая глубина : 16 бит
Метод сжатия : С потерями
Размер потока : 421 Мбайт (11%)
Язык : Russian
Default : Да
Forced : Нет
Аудио #2
Идентификатор : 3
Формат : DTS
Формат/Информация : Digital Theater Systems
Режим : 16
Параметр Endianness формата : Big
Идентификатор кодека : A_DTS
Продолжительность : 1 ч. 32 м.
Вид битрейта : Постоянный
Битрейт : 1510 Кбит/сек
Каналы : 6 каналов
Расположение каналов : Front: L C R, Side: L R, LFE
Частота : 48,0 КГц
Битовая глубина : 24 бит
Метод сжатия : С потерями
Размер потока : 993 Мбайт (25%)
Язык : Russian
Default : Нет
Forced : Нет
Меню
00:00:00.000 : ru:Chapter 01
00:07:28.541 : ru:Chapter 02
00:15:00.833 : ru:Chapter 03
00:22:23.000 : ru:Chapter 04
00:29:48.666 : ru:Chapter 05
00:35:01.375 : ru:Chapter 06
00:42:32.333 : ru:Chapter 07
00:49:40.833 : ru:Chapter 08
00:56:24.416 : ru:Chapter 09
01:02:51.583 : ru:Chapter 10
01:10:02.125 : ru:Chapter 11
01:20:35.375 : ru:Chapter 12
01:31:59.958 : ru:Chapter 13





Релиз от: Rip by:



   Похожие торренты   Торрент   Размер 
В этой теме нет новых непрочитанных сообщений. Мамы 3 (2014) НDRip-AVC от ExKinoRay | Лицензия

34 | 5

1.46 ГБ

В этой теме нет новых непрочитанных сообщений. Мамы 3 (2014) BDRip 720p от HELLYWOOD | Лицензия

108 | 7

3.37 ГБ

В этой теме нет новых непрочитанных сообщений. Дневник мамы первоклассника (2014) DVDRip-AVC от ExKinoRay | Лицензия

851 | 49

1.37 ГБ

В этой теме нет новых непрочитанных сообщений. Мамы 3 (2014) BDRip 720p от Leonardo and Scarabey | Лицензия

187 | 21

2.16 ГБ

В этой теме нет новых непрочитанных сообщений. Мамы 3 (2014) BDRip от HQCLUB | Лицензия

507 | 11

1.45 ГБ

В этой теме нет новых непрочитанных сообщений. Мамы 3 (2014) BDRip от ivandubskoj | Лицензия

57 | 6

746.25 МБ

В этой теме нет новых непрочитанных сообщений. Мамы 3 (2014) BDRip от ivandubskoj | Лицензия

120 | 3

1.46 ГБ




Вы не можете начинать темы
Вы не можете отвечать на сообщения
Вы не можете редактировать свои сообщения
Вы не можете удалять свои сообщения
Вы не можете добавлять вложения

Перейти:  
Для Мосгорсуда, Роскомнадзора и рекламодателей: mosgorsud-torrent[собачка]yandex.ru
 Вход
ppkBB3cker v.2 © 2008-2014 @ PPK
[ Time : 0.050s | 16 Queries | GZIP : Off ]

Торрент трекер RUTOR.IN, Не можете зайти на rutor.org? Какой новый адрес рутор? Какое зеркало рутор? Не работает rutor.org и зеркала? Тогда наш торрент специально для вас. Rutor.in неофициальное зеркало rutor. В случае если у Вас заблокирован rutor или вдруг Вы не можете на него зайти, то Вы без труда сможете скачать бесплатно и без рекламы последние новинки кино, игр, сериалов и прочего у нас, на Rutor.in. Не нужно использовать прокси, чтобы зайти на рутор, достаточно воспользоваться нашим ресурсом. Все новые фильмы, игры, сериалы, книги и музыка за 2013 и 2014 годы через торрент бесплатно. Скачивайте фильмы в хорошем качестве, игры для пк, xbox, playstation без регистрации. У нас вы найдете новые Зарубежные сериалы и Русские сериалы 2013, 2014, 2015 годов. Оставайтесь с нами, качайте любимые фильмы, игры, сериалы, книги и музыку.
cron