img image001 image001 image001 image001 image001 image001 image001 image001 image001 image001 image001 image001 image001 image001 image001

Planets Sun Sun Sun
Статистика раздачи
Автор: Nickolas3434 | Размер: 745.88 МБ | Добавлен: 16 фев 2015
Раздают: 102    Качают: 6
Скачать торрент
Скачать торрент
Описание торрента

СообщениеДобавлено: 16 фев 2015 

Информация о фильме
Оригинальное название: Серебристый звон ручья
Год выхода: 2013
Жанр: Мелодрама
Режиссёр: Игорь Кечаев
В ролях: Татьяна Полосина, Ада Роговцева, Илья Ильин, Александр Пашков
О фильме: Главная героиня Леся - сирота, живет в глухой деревушке на берегу ручья у своей старенькой бабушки Шуры, которую местные жители считают колдуньей. Но на самом деле Шура потомственная знахарка, обладающая даром лечить людей. Леся с детства помогает бабке собирать травы для целебных отваров, и сама лечит разнообразную живность, которую ей приводят односельчане. Однажды в их деревню приезжает Петр - восстанавливать дом своих бабушки и дедушки и местную разрушенную церковь. Девушка случайно встречает Петра в лесу у ручья и между ними сразу возникает взаимная симпатия. Но Лесе давно не дает проходу Василий - фермер из соседней деревни. Он настроен решительно, и готов на всё, чтобы отвадить от Леси любого ухажера. Однажды в лесу Леся находит полуживого Петра - он сильно избит и, похоже, пролежал так без сознания несколько дней. Бабушка Шура обещает выходить его, но при условии, что Петр немедленно после этого уедет. Ведь вся деревня боится Василия из-за его связей в райцентре и темного прошлого. Но настоящую любовь Леся и Петр сумеют пронести через все предстоящие испытания, и обрести друг друга несмотря ни на пожары, ни на тюрьму, ни на оговоры.

Выпущено: Россия, ВайТ Медиа
Продолжительность: 01:30:15
Перевод: Не требуется
Файл
Качество: HDTVRip [Исходник: HDTV (1080i) от mydimka]
Видео: XviD, 1018 Кбит/с, 656x368 (16:9), 25 кадр/с
Аудио: Русский, MP3, 48000 Гц, 128 Кбит/с, 2 канала (Стерео) - Оригинал
Субтитры: Нет

General
Complete name : Serebristyy.zvon.ruch'ya.2013.HDTVRip.745MB.avi
Format : AVI
Format/Info : Audio Video Interleave
File size : 746 MiB
Duration : 1h 30mn
Overall bit rate : 1 155 Kbps
Writing application : VirtualDubMod 1.5.10.3 (build 2550/release)
Writing library : VirtualDubMod build 2550/release
Copyright : rip by ivandubskoj
Video
ID : 0
Format : MPEG-4 Visual
Format profile : Advanced Simple@L5
Format settings, BVOP : 2
Format settings, QPel : No
Format settings, GMC : No warppoints
Format settings, Matrix : Custom
Codec ID : XVID
Codec ID/Hint : XviD
Duration : 1h 30mn
Bit rate : 1 018 Kbps
Width : 656 pixels
Height : 368 pixels
Display aspect ratio : 16:9
Frame rate : 25.000 fps
Color space : YUV
Chroma subsampling : 4:2:0
Bit depth : 8 bits
Scan type : Progressive
Compression mode : Lossy
Bits/(Pixel*Frame) : 0.169
Stream size : 657 MiB (88%)
Writing library : XviD 73
Audio
ID : 1
Format : MPEG Audio
Format version : Version 1
Format profile : Layer 3
Codec ID : 55
Codec ID/Hint : MP3
Duration : 1h 30mn
Bit rate mode : Constant
Bit rate : 128 Kbps
Channel(s) : 2 channels
Sampling rate : 48.0 KHz
Compression mode : Lossy
Stream size : 82.6 MiB (11%)
Alignment : Aligned on interleaves
Interleave, duration : 40 ms (1.00 video frame)
Interleave, preload duration : 504 ms
Writing library : LAME3.99r
Encoding settings : -m s -V 4 -q 0 -lowpass 17 -b 128




Автор рипа - ivandubskoj



   Похожие торренты   Торрент   Размер 
В этой теме нет новых непрочитанных сообщений. Серебристый звон ручья (2013) HDTVRip-AVC от Files-x

84 | 2

1.37 ГБ

В этой теме нет новых непрочитанных сообщений. Серебристый звон ручья (2013) HDTVRip от Files-x

100 | 12

1.37 ГБ

В этой теме нет новых непрочитанных сообщений. Серебристый звон ручья (2013) HDTVRip 720p

13 | 4

2.69 ГБ

В этой теме нет новых непрочитанных сообщений. Серебристый звон ручья (2013) SATRip

30 | 4

697.9 МБ

В этой теме нет новых непрочитанных сообщений. Серебристый звон ручья (2013) HDTV 1080i

6 | 5

5.32 ГБ

В этой теме нет новых непрочитанных сообщений. Серебристый звон ручья (2013) HDTV 1080i от Files-x

15 | 3

7.37 ГБ

В этой теме нет новых непрочитанных сообщений. Везучая (2013) HDTVRip от ivandubskoj

242 | 12

720.97 МБ




Вы не можете начинать темы
Вы не можете отвечать на сообщения
Вы не можете редактировать свои сообщения
Вы не можете удалять свои сообщения
Вы не можете добавлять вложения

Перейти:  
Для Мосгорсуда, Роскомнадзора и рекламодателей: mosgorsud-torrent[собачка]yandex.ru
 Вход
ppkBB3cker v.2 © 2008-2014 @ PPK
[ Time : 0.070s | 16 Queries | GZIP : Off ]

Торрент трекер RUTOR.IN, Не можете зайти на rutor.org? Какой новый адрес рутор? Какое зеркало рутор? Не работает rutor.org и зеркала? Тогда наш торрент специально для вас. Rutor.in неофициальное зеркало rutor. В случае если у Вас заблокирован rutor или вдруг Вы не можете на него зайти, то Вы без труда сможете скачать бесплатно и без рекламы последние новинки кино, игр, сериалов и прочего у нас, на Rutor.in. Не нужно использовать прокси, чтобы зайти на рутор, достаточно воспользоваться нашим ресурсом. Все новые фильмы, игры, сериалы, книги и музыка за 2013 и 2014 годы через торрент бесплатно. Скачивайте фильмы в хорошем качестве, игры для пк, xbox, playstation без регистрации. У нас вы найдете новые Зарубежные сериалы и Русские сериалы 2013, 2014, 2015 годов. Оставайтесь с нами, качайте любимые фильмы, игры, сериалы, книги и музыку.