img image001 image001 image001 image001 image001 image001 image001 image001 image001 image001 image001 image001 image001 image001 image001

Planets Sun Sun Sun
Статистика раздачи
Автор: Nickolas3434 | Размер: 745.81 МБ | Добавлен: 16 фев 2015
Раздают: 2791    Качают: 326
Скачать торрент
Скачать торрент
Описание торрента

СообщениеДобавлено: 16 фев 2015 

Информация о фильме
Оригинальное название: Плохая соседка
Год выхода: 2015
Жанр: Комедия, мелодрама
Режиссёр: Роман Барабаш
В ролях: Анастасия Задорожная, Илья Иосифов, Ада Роговцева, Валерия Ходос, Жанна Эппле, Сергей Калантай, Таисия Шипилова, Екатерина Гулякова, Виталий Салий, Владимир Абазопуло
О фильме: 23-летняя Катя - гример из провинциального театра. Она привлекательна и хочет добиться успеха в жизни. Для этого она приезжает в большой город. Девушка уверена, что удача всегда на ее стороне, и у нее все получится! Иначе и быть не может! Но судьба все время испытывает Катин оптимизм на прочность.

Выпущено: Россия, Star Media
Продолжительность: 01:34:36
Перевод: Не требуется
Файл
Качество: WEB-DLRip
Видео: XviD, 964 Кбит/с, 656x368 (16:9), 25 кадр/с
Аудио: Русский, MP3, 48000 Гц, 128 Кбит/с, 2 канала (Стерео) - Оригинал
Субтитры: Нет

General
Complete name : Plohaja.sosedka.WEB-DLRip.745MB.avi
Format : AVI
Format/Info : Audio Video Interleave
File size : 746 MiB
Duration : 1h 34mn
Overall bit rate : 1 102 Kbps
Writing application : VirtualDubMod 1.5.10.3 (build 2550/release)
Writing library : VirtualDubMod build 2550/release
Copyright : rip by ivandubskoj
Video
ID : 0
Format : MPEG-4 Visual
Format profile : Advanced Simple@L5
Format settings, BVOP : 2
Format settings, QPel : No
Format settings, GMC : No warppoints
Format settings, Matrix : Custom
Codec ID : XVID
Codec ID/Hint : XviD
Duration : 1h 34mn
Bit rate : 964 Kbps
Width : 656 pixels
Height : 368 pixels
Display aspect ratio : 16:9
Frame rate : 25.000 fps
Color space : YUV
Chroma subsampling : 4:2:0
Bit depth : 8 bits
Scan type : Progressive
Compression mode : Lossy
Bits/(Pixel*Frame) : 0.160
Stream size : 653 MiB (88%)
Writing library : XviD 73
Audio
ID : 1
Format : MPEG Audio
Format version : Version 1
Format profile : Layer 3
Codec ID : 55
Codec ID/Hint : MP3
Duration : 1h 34mn
Bit rate mode : Constant
Bit rate : 128 Kbps
Channel(s) : 2 channels
Sampling rate : 48.0 KHz
Compression mode : Lossy
Stream size : 86.6 MiB (12%)
Alignment : Aligned on interleaves
Interleave, duration : 40 ms (1.00 video frame)
Interleave, preload duration : 504 ms
Writing library : LAME3.99r
Encoding settings : -m s -V 4 -q 0 -lowpass 17 -b 128



Автор рипа - ivandubskoj



   Похожие торренты   Торрент   Размер 
В этой теме нет новых непрочитанных сообщений. Плохая соседка (2015) WEB-DLRip от Files-x

1390 | 56

1.37 ГБ

В этой теме нет новых непрочитанных сообщений. Плохая соседка (2015) WEB-DLRip-AVC от ExKinoRay

2721 | 71

1.71 ГБ

В этой теме нет новых непрочитанных сообщений. Плохая соседка (2015) WEB-DLRip от MegaPeer

21 | 0

1.37 ГБ

В этой теме нет новых непрочитанных сообщений. Плохая соседка (2015) WEB-DLRip 720p от MegaPeer

23 | 0

1.82 ГБ

В этой теме нет новых непрочитанных сообщений. Плохая соседка (2015) WEB-DL 720p от Files-x

1665 | 66

1.21 ГБ

В этой теме нет новых непрочитанных сообщений. Плохая соседка (2015) HDTVRip от Шкипер

279 | 33

745.01 МБ

В этой теме нет новых непрочитанных сообщений. Плохая соседка (2015) HDTVRip 720p от MediaClub

2126 | 107

2.43 ГБ




Вы не можете начинать темы
Вы не можете отвечать на сообщения
Вы не можете редактировать свои сообщения
Вы не можете удалять свои сообщения
Вы не можете добавлять вложения

Перейти:  
Для Мосгорсуда, Роскомнадзора и рекламодателей: mosgorsud-torrent[собачка]yandex.ru
 Вход
ppkBB3cker v.2 © 2008-2014 @ PPK
[ Time : 0.028s | 16 Queries | GZIP : Off ]

Торрент трекер RUTOR.IN, Не можете зайти на rutor.org? Какой новый адрес рутор? Какое зеркало рутор? Не работает rutor.org и зеркала? Тогда наш торрент специально для вас. Rutor.in неофициальное зеркало rutor. В случае если у Вас заблокирован rutor или вдруг Вы не можете на него зайти, то Вы без труда сможете скачать бесплатно и без рекламы последние новинки кино, игр, сериалов и прочего у нас, на Rutor.in. Не нужно использовать прокси, чтобы зайти на рутор, достаточно воспользоваться нашим ресурсом. Все новые фильмы, игры, сериалы, книги и музыка за 2013 и 2014 годы через торрент бесплатно. Скачивайте фильмы в хорошем качестве, игры для пк, xbox, playstation без регистрации. У нас вы найдете новые Зарубежные сериалы и Русские сериалы 2013, 2014, 2015 годов. Оставайтесь с нами, качайте любимые фильмы, игры, сериалы, книги и музыку.
cron