img image001 image001 image001 image001 image001 image001 image001 image001 image001 image001 image001 image001 image001 image001 image001

Planets Sun Sun Sun
Статистика раздачи
Автор: Nickolas3434 | Размер: 1.71 ГБ | Добавлен: 17 фев 2015
Раздают: 2721    Качают: 71
Скачать торрент
Скачать торрент
Описание торрента

СообщениеДобавлено: 17 фев 2015 

Информация о фильме
Оригинальное название: Плохая соседка
Год выпуска: 2015
Жанр: Мелодрама
Режиссер: Роман Барабаш
В ролях: Анастасия Задорожная, Илья Иосифов, Ада Роговцева, Валерия Ходос, Жанна Эппле, Сергей Калантай, Таисия Шипилова, Екатерина Гулякова, Виталий Салий, Владимир Абазопуло
О фильме:
23-летняя Катя - гример из провинциального театра. Она привлекательна и хочет добиться успеха в жизни. Для этого она приезжает в большой город. Девушка уверена, что удача всегда на ее стороне, и у нее все получится! Иначе и быть не может! Но судьба все время испытывает Катин оптимизм на прочность.
Выпущено: Россия
Продолжительность: 01:34:36
Перевод: Не требуется
Файл
Качество: WEB-DLRip (AVC)
Видео: MPEG-4 AVC, 2389 Кбит/с, 1024x576
Аудио: AC3, 2 ch, 192 Кбит/с
Язык: Русский
General
Unique ID : 204564637757167016450313330659666739701 (0x99E5B75513C5A043B89B6684A174C1F5)
Complete name : C:Ploxaja.sosedka.2015.WEB-DLRip.AVC.ExKinoray.mkv
Format : Matroska
Format version : Version 4 / Version 2
File size : 1.71 GiB
Duration : 1h 34mn
Overall bit rate : 2 582 Kbps
Movie name : Ploxaja sosedka 2015 from ExKinoRay
Encoded date : UTC 2015-02-16 00:33:50
Writing application : mkvmerge v6.6.0 ('The Edge Of The In Between') built on Dec 1 2013 17:55:00
Writing library : libebml v1.3.0 + libmatroska v1.4.1
Video
ID : 1
Format : AVC
Format/Info : Advanced Video Codec
Format profile : High@L4.1
Format settings, CABAC : Yes
Format settings, ReFrames : 9 frames
Codec ID : V_MPEG4/ISO/AVC
Duration : 1h 34mn
Bit rate : 2 389 Kbps
Width : 1 024 pixels
Height : 576 pixels
Display aspect ratio : 16:9
Frame rate mode : Constant
Frame rate : 23.976 fps
Color space : YUV
Chroma subsampling : 4:2:0
Bit depth : 8 bits
Scan type : Progressive
Bits/(Pixel*Frame) : 0.169
Stream size : 1.55 GiB (91%)
Title : Enigma
Writing library : x264 core 133 r2334 a3ac64b
Encoding settings : cabac=1 / ref=9 / deblock=1:-2:-2 / analyse=0x3:0x113 / me=umh / subme=10 / psy=1 / psy_rd=1.05:0.15 / mixed_ref=1 / me_range=32 / chroma_me=1 / trellis=2 / 8x8dct=1 / cqm=0 / deadzone=21,11 / fast_pskip=0 / chroma_qp_offset=-3 / threads=12 / lookahead_threads=2 / sliced_threads=0 / nr=0 / decimate=0 / interlaced=0 / bluray_compat=0 / constrained_intra=0 / bframes=8 / b_pyramid=2 / b_adapt=2 / b_bias=0 / direct=3 / weightb=1 / open_gop=0 / weightp=2 / keyint=240 / keyint_min=23 / scenecut=40 / intra_refresh=0 / rc=2pass / mbtree=0 / bitrate=2389 / ratetol=1.0 / qcomp=0.60 / qpmin=0 / qpmax=51 / qpstep=4 / cplxblur=20.0 / qblur=0.5 / ip_ratio=1.40 / pb_ratio=1.30 / aq=1:1.00
Default : Yes
Forced : No
Color primaries : BT.709
Transfer characteristics : BT.709
Matrix coefficients : BT.709
Audio
ID : 2
Format : AC-3
Format/Info : Audio Coding 3
Mode extension : CM (complete main)
Format settings, Endianness : Big
Codec ID : A_AC3
Duration : 1h 34mn
Bit rate mode : Constant
Bit rate : 192 Kbps
Channel(s) : 2 channels
Channel positions : Front: L R
Sampling rate : 44.1 KHz
Bit depth : 16 bits
Compression mode : Lossy
Stream size : 130 MiB (7%)
Language : Russian
Default : Yes
Forced : No






Релиз от:
Автор релиза:



   Похожие торренты   Торрент   Размер 
В этой теме нет новых непрочитанных сообщений. Плохая соседка (2015) WEB-DLRip от Files-x

1390 | 56

1.37 ГБ

В этой теме нет новых непрочитанных сообщений. Плохая соседка (2015) WEB-DLRip от ivandubskoj

2791 | 326

745.81 МБ

В этой теме нет новых непрочитанных сообщений. Плохая соседка (2015) WEB-DLRip от MegaPeer

45 | 2

1.37 ГБ

В этой теме нет новых непрочитанных сообщений. Плохая соседка (2015) WEB-DLRip 720p от MegaPeer

47 | 5

1.82 ГБ

В этой теме нет новых непрочитанных сообщений. Плохая соседка (2015) HDTVRip от Шкипер

279 | 33

745.01 МБ

В этой теме нет новых непрочитанных сообщений. Плохая соседка (2015) WEB-DL 720p от Files-x

1665 | 66

1.21 ГБ

В этой теме нет новых непрочитанных сообщений. Плохая соседка (2015) HDTVRip 720p от MediaClub

2150 | 107

2.43 ГБ




Вы не можете начинать темы
Вы не можете отвечать на сообщения
Вы не можете редактировать свои сообщения
Вы не можете удалять свои сообщения
Вы не можете добавлять вложения

Перейти:  
Для Мосгорсуда, Роскомнадзора и рекламодателей: mosgorsud-torrent[собачка]yandex.ru
 Вход
ppkBB3cker v.2 © 2008-2014 @ PPK
[ Time : 0.111s | 15 Queries | GZIP : Off ]

Торрент трекер RUTOR.IN, Не можете зайти на rutor.org? Какой новый адрес рутор? Какое зеркало рутор? Не работает rutor.org и зеркала? Тогда наш торрент специально для вас. Rutor.in неофициальное зеркало rutor. В случае если у Вас заблокирован rutor или вдруг Вы не можете на него зайти, то Вы без труда сможете скачать бесплатно и без рекламы последние новинки кино, игр, сериалов и прочего у нас, на Rutor.in. Не нужно использовать прокси, чтобы зайти на рутор, достаточно воспользоваться нашим ресурсом. Все новые фильмы, игры, сериалы, книги и музыка за 2013 и 2014 годы через торрент бесплатно. Скачивайте фильмы в хорошем качестве, игры для пк, xbox, playstation без регистрации. У нас вы найдете новые Зарубежные сериалы и Русские сериалы 2013, 2014, 2015 годов. Оставайтесь с нами, качайте любимые фильмы, игры, сериалы, книги и музыку.