img image001 image001 image001 image001 image001 image001 image001 image001 image001 image001 image001 image001 image001 image001 image001

Planets Sun Sun Sun
Статистика раздачи
Автор: Nickolas3434 | Размер: 1.45 ГБ | Добавлен: 17 фев 2015
Раздают: 12    Качают: 6
Скачать торрент
Скачать торрент
Описание торрента

СообщениеДобавлено: 17 фев 2015 

Страна: СССР
Производство: Мосфильм, ЦОКС
Жанр: фэнтези, семейный
Год выпуска: 1941
Продолжительность: 01:23:00
Перевод: Не требуется
Cубтитры: нет
Оригинальная аудиодорожка: русский
Режиссер: Фёдор Филиппов, Валентин Кадочников
В ролях:
Владимир Тумаларьянц, Нина Заварова, Владимир Грибков, Иван Переверзев, Г. Киреевская, Олег Бант, Алексей Кельберер, Сергей Мартинсон, О. Торопова, Степан Каюков...
Описание:
Богатырь Мастер На Все Руки дарит Андрейке и Марийке волшебное зерно, которое должно принести людям радость и изобилие, если дети будут крепко дружить и тщательно заботиться о нем. Копия этого зерна хранится в железном сундуке злого волшебника Кара-Мора, врага всего живого. Кара-Мор, узнав о том, что дети посадили зерно и тщательно оберегают росток, посылает армию вредителей-долгоносиков и требует уничтожить растение, пока оно не принесло плодов - новых зерен счастья и изобилия...





Источник: DVD5 R5
Качество видео: DVDRip
Формат видео: AVI
Видео: 688x512 (4:3), 25 fps, XviD ~ 2308 kbps avg, 0.262 bit/pixel
Аудио: 48 kHz, Dolby Digital AC3 2.0, 192 kbps
Раздача от:
Общее
Полное имя : Volshebnoe.zerno.1941.DVDRip_[New-team]_by_AVP_Studio.avi
Формат : AVI
Формат/Информация : Audio Video Interleave
Размер файла : 1,45 Гбайт
Продолжительность : 1 ч. 22 м.
Общий поток : 2510 Кбит/сек
Программа кодирования : VirtualDubModRus 1.5.10.2 (build 2542/release)
Библиотека кодирования : VirtualDubMod build 2542/release
Видео
Идентификатор : 0
Формат : MPEG-4 Visual
Профиль формата : Advanced Simple@L5
Параметр BVOP формата : 1
Параметр QPel формата : Нет
Параметр GMC формата : Без точки перехода
Параметр матрицы формата : Выборочная
Идентификатор кодека : XVID
Идентификатор кодека/Подсказка : XviD
Продолжительность : 1 ч. 22 м.
Битрейт : 2308 Кбит/сек
Ширина : 688 пикселей
Высота : 512 пикселей
Соотношение сторон : 4:3
Частота кадров : 25,000 кадров/сек
Цветовое пространство : YUV
Субдискретизация насыщенности : 4:2:0
Битовая глубина : 8 бит
Тип развёртки : Прогрессивная
Метод сжатия : С потерями
Бит/(Пиксели*Кадры) : 0.262
Размер потока : 1,34 Гбайт (92%)
Библиотека кодирования : XviD 73
Аудио
Идентификатор : 1
Формат : AC-3
Формат/Информация : Audio Coding 3
Расширение режима : CM (complete main)
Параметр Endianness формата : Big
Идентификатор кодека : 2000
Продолжительность : 1 ч. 22 м.
Вид битрейта : Постоянный
Битрейт : 192 Кбит/сек
Каналы : 2 канала
Расположение каналов : Front: L R
Частота : 48,0 КГц
Битовая глубина : 16 бит
Метод сжатия : С потерями
Размер потока : 114 Мбайт (8%)
Выравнивание : Разделение по промежуткам
Продолжительность промежутка : 40 мс. (1,00 видеокадр)
Время предзагрузки промежутка : 500 мс





   Похожие торренты   Торрент   Размер 
В этой теме нет новых непрочитанных сообщений. Волшебное зерно (1941) DVDRip от New-Team

5 | 5

743.52 МБ

В этой теме нет новых непрочитанных сообщений. Волшебное зерно (1941) DVDRip-AVC от New-Team

13 | 4

1.46 ГБ

В этой теме нет новых непрочитанных сообщений. Волшебное зерно (1941) DVDRip от Generalfilm

0 | 2

1.37 ГБ

В этой теме нет новых непрочитанных сообщений. Волшебное зерно (1941) DVDRip от Киномагия

0 | 4

994.98 МБ

В этой теме нет новых непрочитанных сообщений. Мечта (1941) DVDRip-AVC от New-Team

9 | 6

1.46 ГБ

В этой теме нет новых непрочитанных сообщений. Мечта (1941) DVDRip от New-Team

10 | 4

745.04 МБ

В этой теме нет новых непрочитанных сообщений. Романтики (1941) DVDRip от New-Team

4 | 6

744.41 МБ




Вы не можете начинать темы
Вы не можете отвечать на сообщения
Вы не можете редактировать свои сообщения
Вы не можете удалять свои сообщения
Вы не можете добавлять вложения

Перейти:  
Для Мосгорсуда, Роскомнадзора и рекламодателей: mosgorsud-torrent[собачка]yandex.ru
 Вход
ppkBB3cker v.2 © 2008-2014 @ PPK
[ Time : 0.022s | 18 Queries | GZIP : Off ]

Торрент трекер RUTOR.IN, Не можете зайти на rutor.org? Какой новый адрес рутор? Какое зеркало рутор? Не работает rutor.org и зеркала? Тогда наш торрент специально для вас. Rutor.in неофициальное зеркало rutor. В случае если у Вас заблокирован rutor или вдруг Вы не можете на него зайти, то Вы без труда сможете скачать бесплатно и без рекламы последние новинки кино, игр, сериалов и прочего у нас, на Rutor.in. Не нужно использовать прокси, чтобы зайти на рутор, достаточно воспользоваться нашим ресурсом. Все новые фильмы, игры, сериалы, книги и музыка за 2013 и 2014 годы через торрент бесплатно. Скачивайте фильмы в хорошем качестве, игры для пк, xbox, playstation без регистрации. У нас вы найдете новые Зарубежные сериалы и Русские сериалы 2013, 2014, 2015 годов. Оставайтесь с нами, качайте любимые фильмы, игры, сериалы, книги и музыку.