img image001 image001 image001 image001 image001 image001 image001 image001 image001 image001 image001 image001 image001 image001 image001

Planets Sun Sun Sun
Статистика раздачи
Автор: Nickolas3434 | Размер: 743.52 МБ | Добавлен: 16 фев 2015
Раздают: 1    Качают: 3
Скачать торрент
Скачать торрент
Описание торрента

СообщениеДобавлено: 16 фев 2015 

Страна: СССР
Производство: Мосфильм, ЦОКС
Жанр: фэнтези, семейный
Год выпуска: 1941
Продолжительность: 01:23:00
Перевод: Не требуется
Cубтитры: нет
Оригинальная аудиодорожка: русский
Режиссер: Фёдор Филиппов, Валентин Кадочников
В ролях:
Владимир Тумаларьянц, Нина Заварова, Владимир Грибков, Иван Переверзев, Г. Киреевская, Олег Бант, Алексей Кельберер, Сергей Мартинсон, О. Торопова, Степан Каюков...
Описание:
Богатырь Мастер На Все Руки дарит Андрейке и Марийке волшебное зерно, которое должно принести людям радость и изобилие, если дети будут крепко дружить и тщательно заботиться о нем. Копия этого зерна хранится в железном сундуке злого волшебника Кара-Мора, врага всего живого. Кара-Мор, узнав о том, что дети посадили зерно и тщательно оберегают росток, посылает армию вредителей-долгоносиков и требует уничтожить растение, пока оно не принесло плодов - новых зерен счастья и изобилия...





Источник: DVD5 R5
Качество видео: DVDRip
Формат видео: AVI
Видео: 640x480 (4:3), 25 fps, XviD ~ 1115 kbps avg, 0.145 bit/pixel
Аудио: 48 kHz, MP3 2.0, 128 kbps
Раздача от:
Общее
Полное имя : Volshebnoe.zerno.1941.DVDRip-745_[New-team]_by_AVP_Studio.avi
Формат : AVI
Формат/Информация : Audio Video Interleave
Размер файла : 744 Мбайт
Продолжительность : 1 ч. 22 м.
Общий поток : 1253 Кбит/сек
Программа кодирования : VirtualDubModRus 1.5.10.2 (build 2542/release)
Библиотека кодирования : VirtualDubMod build 2542/release
Видео
Идентификатор : 0
Формат : MPEG-4 Visual
Профиль формата : Advanced Simple@L5
Параметр BVOP формата : 1
Параметр QPel формата : Нет
Параметр GMC формата : Без точки перехода
Параметр матрицы формата : Выборочная
Идентификатор кодека : XVID
Идентификатор кодека/Подсказка : XviD
Продолжительность : 1 ч. 22 м.
Битрейт : 1115 Кбит/сек
Ширина : 640 пикселей
Высота : 480 пикселей
Соотношение сторон : 4:3
Частота кадров : 25,000 кадров/сек
Цветовое пространство : YUV
Субдискретизация насыщенности : 4:2:0
Битовая глубина : 8 бит
Тип развёртки : Прогрессивная
Метод сжатия : С потерями
Бит/(Пиксели*Кадры) : 0.145
Размер потока : 662 Мбайт (89%)
Библиотека кодирования : XviD 73
Аудио
Идентификатор : 1
Формат : MPEG Audio
Версия формата : Version 1
Профиль формата : Layer 3
Идентификатор кодека : 55
Идентификатор кодека/Подсказка : MP3
Продолжительность : 1 ч. 22 м.
Вид битрейта : Постоянный
Битрейт : 128 Кбит/сек
Каналы : 2 канала
Частота : 48,0 КГц
Метод сжатия : С потерями
Размер потока : 76,0 Мбайт (10%)
Выравнивание : Соединение по промежуткам
Продолжительность промежутка : 40 мс. (1,00 видеокадр)
Время предзагрузки промежутка : 504 мс.
Библиотека кодирования : LAME3.99r
Настройки программы : -m s -V 4 -q 2 -lowpass 17 -b 128





   Похожие торренты   Торрент   Размер 
В этой теме нет новых непрочитанных сообщений. Волшебное зерно (1941) DVDRip от New-Team

9 | 2

1.45 ГБ

В этой теме нет новых непрочитанных сообщений. Волшебное зерно (1941) DVDRip-AVC от New-Team

11 | 3

1.46 ГБ

В этой теме нет новых непрочитанных сообщений. Волшебное зерно (1941) DVDRip от Generalfilm

0 | 2

1.37 ГБ

В этой теме нет новых непрочитанных сообщений. Волшебное зерно (1941) DVDRip от Киномагия

0 | 4

994.98 МБ

В этой теме нет новых непрочитанных сообщений. Мечта (1941) DVDRip от New-Team

123 | 28

1.45 ГБ

В этой теме нет новых непрочитанных сообщений. Романтики (1941) DVDRip от New-Team

1 | 3

744.41 МБ

В этой теме нет новых непрочитанных сообщений. Романтики (1941) DVDRip-AVC от New-Team

26 | 19

745.26 МБ




Вы не можете начинать темы
Вы не можете отвечать на сообщения
Вы не можете редактировать свои сообщения
Вы не можете удалять свои сообщения
Вы не можете добавлять вложения

Перейти:  
Для Мосгорсуда, Роскомнадзора и рекламодателей: mosgorsud-torrent[собачка]yandex.ru
 Вход
ppkBB3cker v.2 © 2008-2014 @ PPK
[ Time : 0.084s | 16 Queries | GZIP : Off ]

cron