img image001 image001 image001 image001 image001 image001 image001 image001 image001 image001 image001 image001 image001 image001 image001

Planets Sun Sun Sun
Статистика раздачи
Автор: Nickolas3434 | Размер: 1.67 ГБ | Добавлен: 17 фев 2015
Раздают: 452    Качают: 16
Скачать торрент
Скачать торрент
Описание торрента

СообщениеДобавлено: 17 фев 2015 

Год выпуска: 2014
Страна: Россия
Жанр: драма
Продолжительность: 02:21:27
Перевод: Оригинал (русский)
Режиссер: Андрей Звягинцев
В ролях: Алексей Серебряков, Елена Лядова, Владимир Вдовиченков, Роман Мадянов, Анна Уколова, Алексей Розин, Сергей Походаев, Платон Каменев, Сергей Бачурский, Валерий Гришко, Алла Еминцева
Описание: Главный герой, автослесарь Николай Сергеев, живёт вместе с женой Лилией и сыном от первой жены Романом в маленьком городке Прибрежный близ Баренцева моря, в доме на берегу небольшой бухты, куда порой заплывают киты, и поддерживает приятельские отношения с местным полицейским Поливановым и его супругой. Когда коррумпированный мэр города Вадим Шелевят пытается изъять практически всё имущество Николая — дом, автомастерскую и его собственные земли, главный герой прибегает к помощи старого друга по армии Дмитрия Селезнёва, ныне уважаемого столичного адвоката. После того, как суд во второй раз выносит решение в пользу мэра, Дмитрий определяет единственный способ борьбы с политиком — найти на него убойный компромат.

Видео кодек: MPEG-4 AVC
Качество: BDRip 720p
Параметры Видео: 1280x528, 24.000 fps; ~1 518 kbps avg
Параметры Звука: 48.0 KHz, AAC, ~165.00 kbps avg, 2ch
Формат: mp4
Релиз:


General
Complete name : E:Leviafan.2014.O.BDRip.720p_KinoGadget.mp4
Format : MPEG-4
Format profile : Base Media
Codec ID : isom
File size : 1.67 GiB
Duration : 2h 21mn
Overall bit rate mode : Variable
Overall bit rate : 1 690 Kbps
Movie name : Левиафан
Performer : Андрей Звягинцев
Genre : Drama
ContentType : Short Film
Recorded date : 2014
Encoded date : UTC 2015-02-16 08:02:29
Tagged date : UTC 2015-02-16 08:08:42
Cover : Yes
ContentRating : mpaa|R|400|
LongDeion : Главный герой, автослесарь Николай Сергеев, живёт вместе с женой Лилией и сыном от первой жены Романом в маленьком городке Прибрежный близ Баренцева моря, в доме на берегу небольшой бухты, куда порой заплывают киты, и поддерживает приятельские отношения с местным полицейским Поливановым и его супругой. Когда коррумпированный мэр города Вадим Шелевят пытается изъять практически всё имущество Николая — дом, автомастерскую и его собственные земли, главный герой прибегает к помощи старого друга по армии Дмитрия Селезнёва, ныне уважаемого столичного адвоката...
HDVideo : Yes
Video
ID : 1
Format : AVC
Format/Info : Advanced Video Codec
Format profile : High@L4.1
Format settings, CABAC : Yes
Format settings, ReFrames : 11 frames
Codec ID : avc1
Codec ID/Info : Advanced Video Coding
Duration : 2h 21mn
Bit rate : 1 518 Kbps
Maximum bit rate : 8 003 Kbps
Width : 1 280 pixels
Height : 528 pixels
Display aspect ratio : 2.40:1
Frame rate mode : Constant
Frame rate : 24.000 fps
Color space : YUV
Chroma subsampling : 4:2:0
Bit depth : 8 bits
Scan type : Progressive
Bits/(Pixel*Frame) : 0.094
Stream size : 1.50 GiB (90%)
Writing library : x264 core 144 r2525 40bb568
Encoding settings : cabac=1 / ref=11 / deblock=1:-1:-1 / analyse=0x3:0x133 / me=umh / subme=11 / psy=1 / psy_rd=1.00:0.20 / mixed_ref=1 / me_range=24 / chroma_me=1 / trellis=2 / 8x8dct=1 / cqm=0 / deadzone=21,11 / fast_pskip=1 / chroma_qp_offset=-3 / threads=3 / lookahead_threads=1 / sliced_threads=0 / nr=0 / decimate=1 / interlaced=0 / bluray_compat=0 / constrained_intra=0 / bframes=6 / b_pyramid=2 / b_adapt=2 / b_bias=0 / direct=3 / weightb=1 / open_gop=0 / weightp=2 / keyint=240 / keyint_min=24 / scenecut=40 / intra_refresh=0 / rc_lookahead=60 / rc=crf / mbtree=1 / crf=21.0 / qcomp=0.60 / qpmin=0 / qpmax=69 / qpstep=4 / ip_ratio=1.40 / aq=1:1.50
Encoded date : UTC 2015-02-16 02:39:35
Tagged date : UTC 2015-02-16 08:03:09
Audio
ID : 2
Format : AAC
Format/Info : Advanced Audio Codec
Format profile : LC
Codec ID : 40
Duration : 2h 21mn
Duration_FirstFrame : 64ms
Bit rate mode : Variable
Bit rate : 165 Kbps
Maximum bit rate : 245 Kbps
Channel count : 2 channels
Channel positions : Front: L R
Sampling rate : 48.0 KHz
Compression mode : Lossy
Stream size : 167 MiB (10%)
Language : Russian
Tagged date : UTC 2015-02-16 08:03:09





   Похожие торренты   Торрент   Размер 
В этой теме нет новых непрочитанных сообщений. Рио 2 / Rio 2 (2014) BDRip 720p | KinoGadget | iPad

306 | 22

1.53 ГБ

В этой теме нет новых непрочитанных сообщений. Топ-5 / Top Five (2014) BDRip 720p | KinoGadget and KinoXa | iPad

49 | 3

1.77 ГБ

В этой теме нет новых непрочитанных сообщений. 22 минуты (2014) BDRip 720p от KinoGadget | iPad

135 | 15

1.44 ГБ

В этой теме нет новых непрочитанных сообщений. Мамы 3 (2014) BDRip 720p | KinoGadget | iPad

561 | 12

1.44 ГБ

В этой теме нет новых непрочитанных сообщений. Заложница 3 / Taken 3 (2014) BDRip 720p | KinoGadget | iPad

94 | 3

2.08 ГБ

В этой теме нет новых непрочитанных сообщений. Василиса (2014) BDRip 720p | KinoGadget | iPad

417 | 48

2.37 ГБ

В этой теме нет новых непрочитанных сообщений. Волки / Wolves (2014) BDRip 720p | KinoGadget | iPad

125 | 5

1.38 ГБ




Вы не можете начинать темы
Вы не можете отвечать на сообщения
Вы не можете редактировать свои сообщения
Вы не можете удалять свои сообщения
Вы не можете добавлять вложения

Перейти:  
Для Мосгорсуда, Роскомнадзора и рекламодателей: mosgorsud-torrent[собачка]yandex.ru
 Вход
ppkBB3cker v.2 © 2008-2014 @ PPK
[ Time : 0.123s | 15 Queries | GZIP : Off ]
CGP output time : 0.126s | 5 Queries | GZIP : Off

Торрент трекер RUTOR.IN, Не можете зайти на rutor.org? Какой новый адрес рутор? Какое зеркало рутор? Не работает rutor.org и зеркала? Тогда наш торрент специально для вас. Rutor.in неофициальное зеркало rutor. В случае если у Вас заблокирован rutor или вдруг Вы не можете на него зайти, то Вы без труда сможете скачать бесплатно и без рекламы последние новинки кино, игр, сериалов и прочего у нас, на Rutor.in. Не нужно использовать прокси, чтобы зайти на рутор, достаточно воспользоваться нашим ресурсом. Все новые фильмы, игры, сериалы, книги и музыка за 2013 и 2014 годы через торрент бесплатно. Скачивайте фильмы в хорошем качестве, игры для пк, xbox, playstation без регистрации. У нас вы найдете новые Зарубежные сериалы и Русские сериалы 2013, 2014, 2015 годов. Оставайтесь с нами, качайте любимые фильмы, игры, сериалы, книги и музыку.