img image001 image001 image001 image001 image001 image001 image001 image001 image001 image001 image001 image001 image001 image001 image001

Planets Sun Sun Sun
Статистика раздачи
Автор: Nickolas3434 | Размер: 1.67 ГБ | Добавлен: 18 фев 2015
Раздают: 185    Качают: 9
Скачать торрент
Скачать торрент
Описание торрента

СообщениеДобавлено: 18 фев 2015 

Оригинальное название: Я не вернусь
Год выпуска: 2014
Жанр: Драма
Выпущено: Россия, Эстония, Финляндия, Беларусь, Amrion, Беларусьфильм, Helsinki-Filmi, Кинокомпания CTB
Режиссер: Ильмар Рааг
В ролях: Полина Пушкарук, Вика Лобачева, Андрей Астраханцев, Сергей Яценюк, Ольга Белинская, Алла Еминцева, Саша Лесникова, Юрий Орлов, Галина Мочалова, Татьяна Зыкова
О фильме: Аня — красивая успешная девушка, учится в аспирантуре, читает лекции по Байрону, и у нее роман с профессором, но в один момент ее жизнь переворачивается, и чтобы избежать ложного обвинения, она убегает, прикинувшись подростком-беспризорником. Маска тинэйджера и знакомство с такой же отчаянной, но действительно маленькой Кристиной обращает бегство девушки в новый путь: заново пережив отрочество, Аня начисто переписывает свою жизнь.

Качество: WEB-DLRip (AVC)
Видео: MPEG-4 AVC, 1822 Кбит/с, 1024x426
Аудио: AC3, 6 ch, 448 Кбит/с
Продолжительность: 01:45:06
Язык: Русский
General
Unique ID : 237536539356700180486372240629113648266 (0xB2B3DF975C219F24A107F87D31A1748A)
Complete name : C:Ya.ne.vernus.2014.O.WEB-DLRip.AVC.ExKinoRay.mkv
Format : Matroska
Format version : Version 4 / Version 2
File size : 1.67 GiB
Duration : 1h 45mn
Overall bit rate : 2 270 Kbps
Movie name : Ya ne vernus 2014 from ExKinoRay
Encoded date : UTC 2015-02-16 20:33:48
Writing application : mkvmerge v6.6.0 ('The Edge Of The In Between') built on Dec 1 2013 17:55:00
Writing library : libebml v1.3.0 + libmatroska v1.4.1
Video
ID : 1
Format : AVC
Format/Info : Advanced Video Codec
Format profile : High@L4.1
Format settings, CABAC : Yes
Format settings, ReFrames : 11 frames
Codec ID : V_MPEG4/ISO/AVC
Duration : 1h 45mn
Bit rate : 1 822 Kbps
Width : 1 024 pixels
Height : 426 pixels
Display aspect ratio : 2.40:1
Frame rate mode : Constant
Frame rate : 25.000 fps
Color space : YUV
Chroma subsampling : 4:2:0
Bit depth : 8 bits
Scan type : Progressive
Bits/(Pixel*Frame) : 0.167
Stream size : 1.30 GiB (78%)
Title : Enigma
Writing library : x264 core 133 r2334 a3ac64b
Encoding settings : cabac=1 / ref=11 / deblock=1:-1:-2 / analyse=0x3:0x113 / me=umh / subme=10 / psy=1 / psy_rd=1.05:0.15 / mixed_ref=1 / me_range=32 / chroma_me=1 / trellis=2 / 8x8dct=1 / cqm=0 / deadzone=21,11 / fast_pskip=0 / chroma_qp_offset=-3 / threads=12 / lookahead_threads=2 / sliced_threads=0 / nr=0 / decimate=0 / interlaced=0 / bluray_compat=0 / constrained_intra=0 / bframes=8 / b_pyramid=2 / b_adapt=2 / b_bias=0 / direct=3 / weightb=1 / open_gop=0 / weightp=2 / keyint=250 / keyint_min=25 / scenecut=40 / intra_refresh=0 / rc=2pass / mbtree=0 / bitrate=1822 / ratetol=1.0 / qcomp=0.60 / qpmin=0 / qpmax=51 / qpstep=4 / cplxblur=20.0 / qblur=0.5 / ip_ratio=1.40 / pb_ratio=1.30 / aq=1:1.00
Default : Yes
Forced : No
Color primaries : BT.709
Transfer characteristics : BT.709
Matrix coefficients : BT.709
Audio
ID : 2
Format : AC-3
Format/Info : Audio Coding 3
Mode extension : CM (complete main)
Format settings, Endianness : Big
Codec ID : A_AC3
Duration : 1h 45mn
Bit rate mode : Constant
Bit rate : 448 Kbps
Channel(s) : 6 channels
Channel positions : Front: L C R, Side: L R, LFE
Sampling rate : 48.0 KHz
Bit depth : 16 bits
Compression mode : Lossy
Stream size : 337 MiB (20%)
Language : Russian
Default : Yes
Forced : No





Релиз от:
Автор релиза:



   Похожие торренты   Торрент   Размер 
В этой теме нет новых непрочитанных сообщений. Я не вернусь (2014) WEB-DLRip

601 | 53

1.45 ГБ

В этой теме нет новых непрочитанных сообщений. Я не вернусь (2014) WEB-DLRip от Scarabey

401 | 39

1.45 ГБ

В этой теме нет новых непрочитанных сообщений. Я не вернусь (2014) WEB-DLRip от Scarabey

190 | 9

746.85 МБ

В этой теме нет новых непрочитанных сообщений. Я вернусь [01-12 из 12] (2009) DVDRip от ExKinoRay

65 | 18

7.1 ГБ

В этой теме нет новых непрочитанных сообщений. Я не вернусь (2014) WEB-DL 1080p

581 | 42

3.23 ГБ

В этой теме нет новых непрочитанных сообщений. Я не вернусь (2014) WEBRip

1000 | 31

1.46 ГБ

В этой теме нет новых непрочитанных сообщений. Я не вернусь (2014) DVDRip

252 | 8

1.27 ГБ




Вы не можете начинать темы
Вы не можете отвечать на сообщения
Вы не можете редактировать свои сообщения
Вы не можете удалять свои сообщения
Вы не можете добавлять вложения

Перейти:  
Для Мосгорсуда, Роскомнадзора и рекламодателей: mosgorsud-torrent[собачка]yandex.ru
 Вход
ppkBB3cker v.2 © 2008-2014 @ PPK
[ Time : 2.972s | 15 Queries | GZIP : Off ]

Торрент трекер RUTOR.IN, Не можете зайти на rutor.org? Какой новый адрес рутор? Какое зеркало рутор? Не работает rutor.org и зеркала? Тогда наш торрент специально для вас. Rutor.in неофициальное зеркало rutor. В случае если у Вас заблокирован rutor или вдруг Вы не можете на него зайти, то Вы без труда сможете скачать бесплатно и без рекламы последние новинки кино, игр, сериалов и прочего у нас, на Rutor.in. Не нужно использовать прокси, чтобы зайти на рутор, достаточно воспользоваться нашим ресурсом. Все новые фильмы, игры, сериалы, книги и музыка за 2013 и 2014 годы через торрент бесплатно. Скачивайте фильмы в хорошем качестве, игры для пк, xbox, playstation без регистрации. У нас вы найдете новые Зарубежные сериалы и Русские сериалы 2013, 2014, 2015 годов. Оставайтесь с нами, качайте любимые фильмы, игры, сериалы, книги и музыку.