img image001 image001 image001 image001 image001 image001 image001 image001 image001 image001 image001 image001 image001 image001 image001

Planets Sun Sun Sun
Статистика раздачи
Автор: Nickolas3434 | Размер: 744.83 МБ | Добавлен: 18 фев 2015
Раздают: 15    Качают: 7
Скачать торрент
Скачать торрент
Описание торрента

СообщениеДобавлено: 18 фев 2015 

Страна: СССР
Производство: Мосфильм
Жанр: военный, история
Год выпуска: 1941
Продолжительность: 01:37:28
Перевод: Не требуется
Cубтитры: нет
Оригинальная аудиодорожка: русский
Режиссер: Ефим Дзиган
В ролях:
Семен Гольдштаб, Николай Боголюбов, Александр Хвыля, Владимир Кабатченко, П. Новик, Яков Рыков, Михаил Викторов, Михаил Брылкин, Раиса Есипова, Михаил Яншин...
Описание:
По одноименной пьесе Всеволода Вишневского. Пьеса В.Вишневского "Первая Конная" была написана в 1929 и долгое время не сходила со сценических подмостков. В фильме снимался Фомин - проводник вагона И.В.Сталина в период 1919-21 гг., на которого здесь была возложена роль консультанта. Сценарий обсуждался с участием наркома обороны СССР К.Е. Ворошилова и его заместителя Е. А. Щаденко. Фильм конкурировал со снимавшейся тогда братьями Васильевыми картиной "Оборона Царицына", эпизоды с участием Сталина и Ворошилова редактировались на "самом верху", вся работа затянулась надолго. Съемки нового варианта фильма начались к осени 1939 года, когда картина неожиданно обрела вполне направленный пропагандистский смысл: мирный договор СССР с Германией и нападение Гитлера на Польшу придали фильму откровенна антипольскую направленность. Осенью 1940 года картина наконец была завершена. К.Е,Ворошилов и С.К. Тимошенко фильм ввдели и оценили его отрицательно. Окончательное решение о принятии картины перенесли на срок после показа фильма С.М. Будённому и Кулику. Возможно, встал вопрос о новых переделках, но им помешала война и вместе с ней - новая политическая конъюнктура - антинемецкая, а не антипольская, резко отличная от прежней. К тому же, запрещение в I942 году второй серии фильма "Оборона Царицына" ясно показало, что новый политический курс изменился не только во внешней, но и во внутренней политике...





Источник: DVD5 R5
Качество видео: DVDRip
Формат видео: AVI
Видео: 576x432 (4:3), 25 fps, XviD ~ 931 kbps avg, 0.150 bit/pixel
Аудио: 48 kHz, MP3 2.0, 128 kbps
Раздача от:
Общее
Полное имя : Pervaya.Konnaya.1941.DVDRip-745_[New-team]_by_AVP_Studio.avi
Формат : AVI
Формат/Информация : Audio Video Interleave
Размер файла : 745 Мбайт
Продолжительность : 1 ч. 37 м.
Общий поток : 1068 Кбит/сек
Программа кодирования : VirtualDubModRus 1.5.10.2 (build 2542/release)
Библиотека кодирования : VirtualDubMod build 2542/release
Видео
Идентификатор : 0
Формат : MPEG-4 Visual
Профиль формата : Advanced Simple@L5
Параметр BVOP формата : 1
Параметр QPel формата : Нет
Параметр GMC формата : Без точки перехода
Параметр матрицы формата : Выборочная
Идентификатор кодека : XVID
Идентификатор кодека/Подсказка : XviD
Продолжительность : 1 ч. 37 м.
Битрейт : 931 Кбит/сек
Ширина : 576 пикселей
Высота : 432 пикселя
Соотношение сторон : 4:3
Частота кадров : 25,000 кадров/сек
Цветовое пространство : YUV
Субдискретизация насыщенности : 4:2:0
Битовая глубина : 8 бит
Тип развёртки : Прогрессивная
Метод сжатия : С потерями
Бит/(Пиксели*Кадры) : 0.150
Размер потока : 649 Мбайт (87%)
Библиотека кодирования : XviD 73
Аудио
Идентификатор : 1
Формат : MPEG Audio
Версия формата : Version 1
Профиль формата : Layer 3
Идентификатор кодека : 55
Идентификатор кодека/Подсказка : MP3
Продолжительность : 1 ч. 37 м.
Вид битрейта : Постоянный
Битрейт : 128 Кбит/сек
Каналы : 2 канала
Частота : 48,0 КГц
Метод сжатия : С потерями
Размер потока : 89,2 Мбайт (12%)
Выравнивание : Соединение по промежуткам
Продолжительность промежутка : 40 мс. (1,00 видеокадр)
Время предзагрузки промежутка : 504 мс.
Библиотека кодирования : LAME3.99r
Настройки программы : -m s -V 4 -q 2 -lowpass 17 -b 128





   Похожие торренты   Торрент   Размер 
В этой теме нет новых непрочитанных сообщений. Первая Конная (1941) DVDRip от New-Team

24 | 15

1.46 ГБ

В этой теме нет новых непрочитанных сообщений. Первая Конная (1941) DVDRip-AVC от New-Team

26 | 12

1.46 ГБ

В этой теме нет новых непрочитанных сообщений. Первая конная (1984) VHSRip

25 | 3

1.16 ГБ

В этой теме нет новых непрочитанных сообщений. Мечта (1941) DVDRip от New-Team

10 | 4

745.04 МБ

В этой теме нет новых непрочитанных сообщений. Мечта (1941) DVDRip-AVC от New-Team

9 | 6

1.46 ГБ

В этой теме нет новых непрочитанных сообщений. Мечта (1941) DVDRip от New-Team

121 | 27

1.45 ГБ

В этой теме нет новых непрочитанных сообщений. Романтики (1941) DVDRip от New-Team

4 | 6

744.41 МБ




Вы не можете начинать темы
Вы не можете отвечать на сообщения
Вы не можете редактировать свои сообщения
Вы не можете удалять свои сообщения
Вы не можете добавлять вложения

Перейти:  
Для Мосгорсуда, Роскомнадзора и рекламодателей: mosgorsud-torrent[собачка]yandex.ru
 Вход
ppkBB3cker v.2 © 2008-2014 @ PPK
[ Time : 0.043s | 17 Queries | GZIP : On ]

Торрент трекер RUTOR.IN, Не можете зайти на rutor.org? Какой новый адрес рутор? Какое зеркало рутор? Не работает rutor.org и зеркала? Тогда наш торрент специально для вас. Rutor.in неофициальное зеркало rutor. В случае если у Вас заблокирован rutor или вдруг Вы не можете на него зайти, то Вы без труда сможете скачать бесплатно и без рекламы последние новинки кино, игр, сериалов и прочего у нас, на Rutor.in. Не нужно использовать прокси, чтобы зайти на рутор, достаточно воспользоваться нашим ресурсом. Все новые фильмы, игры, сериалы, книги и музыка за 2013 и 2014 годы через торрент бесплатно. Скачивайте фильмы в хорошем качестве, игры для пк, xbox, playstation без регистрации. У нас вы найдете новые Зарубежные сериалы и Русские сериалы 2013, 2014, 2015 годов. Оставайтесь с нами, качайте любимые фильмы, игры, сериалы, книги и музыку.