img image001 image001 image001 image001 image001 image001 image001 image001 image001 image001 image001 image001 image001 image001 image001

Planets Sun Sun Sun
Статистика раздачи
Автор: Nickolas3434 | Размер: 745 МБ | Добавлен: 20 фев 2015
Раздают: 33    Качают: 14
Скачать торрент
Скачать торрент
Описание торрента

СообщениеДобавлено: 20 фев 2015 

Страна: СССР
Производство: Мосфильм
Жанр: драма
Год выпуска: 1941
Продолжительность: 01:28:32
Перевод: Не требуется
Cубтитры: нет
Оригинальная аудиодорожка: русский
Режиссер: Григорий Рошаль
В ролях:
Сергей Ромоданов, Тамара Чистякова, Михаил Державин (ст.), Вера Марецкая, Владимир Балашов, Александр Смирнов, Борис Шухмин, Нина Зорская, Надир Малишевский, Григорий Шпигель, Евгений Тетерин, Георгий Светлани, Любовь Орлова, Константин Лишафаев, Гари Миновицкая, Татьяна Барышева, Михаил Пуговкин...
Описание:
Фабрикант Илья Артамонов из бывших крепостных. Его стремление укреплять и развивать дело не знает преград. Он еще связан с крестьянами и мастеровыми, но с его смертью эта связь обрывается. Между Петром Артамоновым, его сыном, ставшим хозяином фабрики, и рабочими вырастает стена вражды. Назревают первые политические выступления. На сторону пролетариата переходит наследник артамоновского дела Илья Артамонов — младший...





Источник: DVB
Качество видео: SATRip
Формат видео: AVI
Видео: 640x480 (4:3), 25 fps, XviD ~ 1039 kbps avg, 0.135 bit/pixel
Аудио: 48 kHz, MP3 2.0, 128 kbps
Раздача от:
Общее
Полное имя : Delo.Artamonovyh.1941.SATRip-745_[New-team]_by_AVP_Studio.avi
Формат : AVI
Формат/Информация : Audio Video Interleave
Размер файла : 745 Мбайт
Продолжительность : 1 ч. 28 м.
Общий поток : 1177 Кбит/сек
Программа кодирования : VirtualDubModRus 1.5.10.2 (build 2542/release)
Библиотека кодирования : VirtualDubMod build 2542/release
Видео
Идентификатор : 0
Формат : MPEG-4 Visual
Профиль формата : Advanced Simple@L5
Параметр BVOP формата : 1
Параметр QPel формата : Нет
Параметр GMC формата : Без точки перехода
Параметр матрицы формата : Выборочная
Идентификатор кодека : XVID
Идентификатор кодека/Подсказка : XviD
Продолжительность : 1 ч. 28 м.
Битрейт : 1039 Кбит/сек
Ширина : 640 пикселей
Высота : 480 пикселей
Соотношение сторон : 4:3
Частота кадров : 25,000 кадров/сек
Цветовое пространство : YUV
Субдискретизация насыщенности : 4:2:0
Битовая глубина : 8 бит
Тип развёртки : Прогрессивная
Метод сжатия : С потерями
Бит/(Пиксели*Кадры) : 0.135
Размер потока : 658 Мбайт (88%)
Библиотека кодирования : XviD 73
Аудио
Идентификатор : 1
Формат : MPEG Audio
Версия формата : Version 1
Профиль формата : Layer 3
Идентификатор кодека : 55
Идентификатор кодека/Подсказка : MP3
Продолжительность : 1 ч. 28 м.
Вид битрейта : Постоянный
Битрейт : 128 Кбит/сек
Каналы : 2 канала
Частота : 44,1 КГц
Метод сжатия : С потерями
Размер потока : 81,1 Мбайт (11%)
Выравнивание : Разделение по промежуткам
Продолжительность промежутка : 40 мс. (1,00 видеокадр)
Время предзагрузки промежутка : 500 мс.
Библиотека кодирования : LAME3.99r
Настройки программы : -m s -V 4 -q 2 -lowpass 17 -b 128





   Похожие торренты   Торрент   Размер 
В этой теме нет новых непрочитанных сообщений. Дело Артамоновых (1941) SATRip-AVC от New-Team

36 | 6

1.46 ГБ

В этой теме нет новых непрочитанных сообщений. Дело Артамоновых (1941) SATRip от New-Team

2 | 17

1.46 ГБ

В этой теме нет новых непрочитанных сообщений. Маскарад (1941) SATRip от New-Team

109 | 12

744.84 МБ

В этой теме нет новых непрочитанных сообщений. Маскарад (1941) SATRip-AVC от New-Team

12 | 22

1.46 ГБ

В этой теме нет новых непрочитанных сообщений. Сабухи (1941) SATRip от New-Team

3 | 4

744.8 МБ

В этой теме нет новых непрочитанных сообщений. Маскарад (1941) SATRip-AVC от New-Team

48 | 9

1.45 ГБ

В этой теме нет новых непрочитанных сообщений. Сабухи (1941) SATRip-AVC от New-Team

3 | 6

1.46 ГБ




Вы не можете начинать темы
Вы не можете отвечать на сообщения
Вы не можете редактировать свои сообщения
Вы не можете удалять свои сообщения
Вы не можете добавлять вложения

Перейти:  
Для Мосгорсуда, Роскомнадзора и рекламодателей: mosgorsud-torrent[собачка]yandex.ru
 Вход
ppkBB3cker v.2 © 2008-2014 @ PPK
[ Time : 0.521s | 15 Queries | GZIP : Off ]

Торрент трекер RUTOR.IN, Не можете зайти на rutor.org? Какой новый адрес рутор? Какое зеркало рутор? Не работает rutor.org и зеркала? Тогда наш торрент специально для вас. Rutor.in неофициальное зеркало rutor. В случае если у Вас заблокирован rutor или вдруг Вы не можете на него зайти, то Вы без труда сможете скачать бесплатно и без рекламы последние новинки кино, игр, сериалов и прочего у нас, на Rutor.in. Не нужно использовать прокси, чтобы зайти на рутор, достаточно воспользоваться нашим ресурсом. Все новые фильмы, игры, сериалы, книги и музыка за 2013 и 2014 годы через торрент бесплатно. Скачивайте фильмы в хорошем качестве, игры для пк, xbox, playstation без регистрации. У нас вы найдете новые Зарубежные сериалы и Русские сериалы 2013, 2014, 2015 годов. Оставайтесь с нами, качайте любимые фильмы, игры, сериалы, книги и музыку.