img image001 image001 image001 image001 image001 image001 image001 image001 image001 image001 image001 image001 image001 image001 image001

Planets Sun Sun Sun
Статистика раздачи
Автор: Nickolas3434 | Размер: 1.46 ГБ | Добавлен: 19 фев 2015
Раздают: 6    Качают: 3
Скачать торрент
Скачать торрент
Описание торрента

СообщениеДобавлено: 19 фев 2015 

Страна: СССР
Производство: Киевская киностудия
Жанр: военный, биография, история
Год выпуска: 1942
Продолжительность: 01:45:51
Перевод: Не требуется
Cубтитры: нет
Оригинальная аудиодорожка: русский
Режиссер: Леонид Луков
В ролях:
Александр Хвыля, Николай Боголюбов, Пётр Алейников, Вера Шершнёва, Степан Каюков, Василий Зайчиков, Борис Чирков, Иван Новосельцев, Татьяна Окуневская, Борис Андреев, Фаина Раневская, Юрий Лавров, Иван Бобров, Андрей Мирошниченко, Лаврентий Масоха, Алексей Максимов, Евгений Самойлов, Эммануил Геллер, Афанасий Белов, Константин Сорокин, Иван Любезнов, Владимир Освецимский, Георгий Куровский, Осип Абдулов, Иван Переверзев, Юлия Солнцева (Пересветова)...
Описание:
Биографический рассказ о жизни полководца времен гражданской войны Александра Пархоменко. В 1918, году захватив Украину, немецкие оккупанты стремились использовать в своей борьбе гайдамаков, белогвардейцев и «зеленых». По приказу Ворошилова, Пархоменко прибывает в Царицын. В это же время немцы переходят в активное наступление. «Красные» батальоны вооружены плохо, однако, Пархоменко удается поднять их в атаку и обратить врага в бегство. Попутно красные кавалеристы уничтожают бандитские шайки…





Источник: DVB
Качество видео: SATRip
Формат видео: AVI
Видео: 688x512 (4:3), 25 fps, XviD ~ 1767 kbps avg, 0.201 bit/pixel
Аудио: 48 kHz, Dolby Digital AC3 2.0, 192 kbps
Раздача от:
Общее
Полное имя : Aleksandr.Parhomenko.1942.SATRip_[New-team]_by_AVP_Studio.avi
Формат : AVI
Формат/Информация : Audio Video Interleave
Размер файла : 1,46 Гбайт
Продолжительность : 1 ч. 45 м.
Общий поток : 1969 Кбит/сек
Программа кодирования : VirtualDubModRus 1.5.10.2 (build 2542/release)
Библиотека кодирования : VirtualDubMod build 2542/release
Видео
Идентификатор : 0
Формат : MPEG-4 Visual
Профиль формата : Advanced Simple@L5
Параметр BVOP формата : 1
Параметр QPel формата : Нет
Параметр GMC формата : Без точки перехода
Параметр матрицы формата : Выборочная
Идентификатор кодека : XVID
Идентификатор кодека/Подсказка : XviD
Продолжительность : 1 ч. 45 м.
Битрейт : 1767 Кбит/сек
Ширина : 688 пикселей
Высота : 512 пикселей
Соотношение сторон : 4:3
Частота кадров : 25,000 кадров/сек
Цветовое пространство : YUV
Субдискретизация насыщенности : 4:2:0
Битовая глубина : 8 бит
Тип развёртки : Прогрессивная
Метод сжатия : С потерями
Бит/(Пиксели*Кадры) : 0.201
Размер потока : 1,31 Гбайт (90%)
Библиотека кодирования : XviD 73
Аудио
Идентификатор : 1
Формат : AC-3
Формат/Информация : Audio Coding 3
Расширение режима : CM (complete main)
Параметр Endianness формата : Big
Идентификатор кодека : 2000
Продолжительность : 1 ч. 45 м.
Вид битрейта : Постоянный
Битрейт : 192 Кбит/сек
Каналы : 2 канала
Расположение каналов : Front: L R
Частота : 48,0 КГц
Битовая глубина : 16 бит
Метод сжатия : С потерями
Размер потока : 145 Мбайт (10%)
Выравнивание : Разделение по промежуткам
Продолжительность промежутка : 40 мс. (1,00 видеокадр)
Время предзагрузки промежутка : 500 мс





   Похожие торренты   Торрент   Размер 
В этой теме нет новых непрочитанных сообщений. Александр Пархоменко (1942) SATRip от New-Team

6 | 5

745.45 МБ

В этой теме нет новых непрочитанных сообщений. Александр Пархоменко (1942) SATRip-AVC от New-Team

27 | 9

1.46 ГБ

В этой теме нет новых непрочитанных сообщений. Александр Пархоменко (1942) DVDRip от Alekxandr48

29 | 3

1.37 ГБ

В этой теме нет новых непрочитанных сообщений. Дорога к звездам (1942) SATRip-AVC от New-Team

25 | 6

744.22 МБ

В этой теме нет новых непрочитанных сообщений. Дорога к звездам (1942) SATRip от New-Team

8 | 4

748.34 МБ

В этой теме нет новых непрочитанных сообщений. Тимофеев А. - Советский ас Александр Клубов. Гвардейцы Покрышкина против пилотов люфтваффе. 1942-1944 (2012) PDF, DJVU

0 | 2

130.09 МБ

В этой теме нет новых непрочитанных сообщений. Бой под Соколом (1942) DVDRip от New-Team

10 | 6

744.55 МБ




Вы не можете начинать темы
Вы не можете отвечать на сообщения
Вы не можете редактировать свои сообщения
Вы не можете удалять свои сообщения
Вы не можете добавлять вложения

Перейти:  
Для Мосгорсуда, Роскомнадзора и рекламодателей: mosgorsud-torrent[собачка]yandex.ru
 Вход
ppkBB3cker v.2 © 2008-2014 @ PPK
[ Time : 0.053s | 18 Queries | GZIP : Off ]

Торрент трекер RUTOR.IN, Не можете зайти на rutor.org? Какой новый адрес рутор? Какое зеркало рутор? Не работает rutor.org и зеркала? Тогда наш торрент специально для вас. Rutor.in неофициальное зеркало rutor. В случае если у Вас заблокирован rutor или вдруг Вы не можете на него зайти, то Вы без труда сможете скачать бесплатно и без рекламы последние новинки кино, игр, сериалов и прочего у нас, на Rutor.in. Не нужно использовать прокси, чтобы зайти на рутор, достаточно воспользоваться нашим ресурсом. Все новые фильмы, игры, сериалы, книги и музыка за 2013 и 2014 годы через торрент бесплатно. Скачивайте фильмы в хорошем качестве, игры для пк, xbox, playstation без регистрации. У нас вы найдете новые Зарубежные сериалы и Русские сериалы 2013, 2014, 2015 годов. Оставайтесь с нами, качайте любимые фильмы, игры, сериалы, книги и музыку.
cron