img image001 image001 image001 image001 image001 image001 image001 image001 image001 image001 image001 image001 image001 image001 image001

Planets Sun Sun Sun
Статистика раздачи
Автор: Nickolas3434 | Размер: 4.16 ГБ | Добавлен: 25 фев 2015
Раздают: 258    Качают: 5
Скачать торрент
Скачать торрент
Описание торрента

СообщениеДобавлено: 25 фев 2015 

Информация о фильме
Название: Дирижер
Год выхода: 2012
Жанр: Драма
Режиссер: Павел Лунгин
В ролях: Владас Багдонас, Карэн Бадалов, Дарья Мороз, Сергей Колтаков, Ольга Оболдина, Инга Стрелкова-Оболдина, Сергей Барковский, Арсений Спасибо, Всеволод Спасибо
Дирижер отправляется со своим оркестром в Иерусалим, чтобы исполнить ораторию «Страсти по Матфею». Но гастроли оборачиваются трагедией. Черное солнце Иерусалима срывает с главного героя маску благополучного художника, заставляет увидеть себя в беспощадной наготе эгоизма и жестокости. Иногда за 3 дня человек может полностью переоценить и переосмыслить свою жизнь. Меняться никогда не поздно.


Страна: Россия
Продолжительность: 01:30:12 ч.
Перевод: Оригинал (Русский)
Файл
Кодек: h264
Качество: BDRip 1080p.
Видео: 1920x816 пикс.; 6150 кбит/сек.; соотн. сторон-2,35:1; частота кадров: 24,000 кадра/сек.
Звук: AC3, 448 кбит./сек., 48.0 кГц, 5.1
Субтитры: Английские, Русские

Общее
Уникальный идентификатор : 224578327417864156490297531443544155095 (0xA8F4366A8EDB486E8DCFC9B898DD63D7)
Полное имя : D:Торрент файлыДирижерДирижер.2012.BDRip.1080p..mkv
Формат : Matroska
Версия формата : Version 4 / Version 2
Размер файла : 4,16 Гбайт
Продолжительность : 1 ч. 30 м.
Общий поток : 6596 Кбит/сек
Дата кодирования : UTC 2015-02-20 21:43:36
Программа кодирования : mkvmerge v7.0.0 ('Where We Going') 64bit built on Jun 9 2014 15:16:27
Библиотека кодирования : libebml v1.3.0 + libmatroska v1.4.1
DURATION : 01:14:05.124000000
NUMBER_OF_FRAMES : 492
NUMBER_OF_BYTES : 19973
_STATISTICS_WRITING_APP : mkvmerge v7.0.0 ('Where We Going') 64bit built on Jun 9 2014 15:16:27
_STATISTICS_WRITING_DATE_UTC : 2015-02-20 21:43:36
_STATISTICS_TAGS : BPS DURATION NUMBER_OF_FRAMES NUMBER_OF_BYTES
Видео
Идентификатор : 1
Формат : AVC
Формат/Информация : Advanced Video Codec
Профиль формата : High@L4.1
Параметр CABAC формата : Да
Параметр ReFrames формата : 9 кадров
Идентификатор кодека : V_MPEG4/ISO/AVC
Продолжительность : 1 ч. 30 м.
Битрейт : 6150 Кбит/сек
Ширина : 1920 пикселей
Высота : 816 пикселей
Соотношение сторон : 2,35:1
Режим частоты кадров : Постоянный
Частота кадров : 24,000 кадра/сек
Цветовое пространство : YUV
Субдискретизация насыщенности : 4:2:0
Битовая глубина : 8 бит
Тип развёртки : Прогрессивная
Бит/(Пиксели*Кадры) : 0.164
Размер потока : 3,79 Гбайт (91%)
Заголовок : Дирижер. 2012. BDRip.1080p.
Библиотека кодирования : x264 core 116 r2019M 9cc407d
Настройки программы : cabac=1 / ref=10 / deblock=1:-1:-1 / analyse=0x3:0x133 / me=tesa / subme=10 / psy=1 / psy_rd=1.00:0.15 / mixed_ref=1 / me_range=32 / chroma_me=1 / trellis=2 / 8x8dct=1 / cqm=0 / deadzone=21,11 / fast_pskip=1 / chroma_qp_offset=-3 / threads=10 / sliced_threads=0 / nr=10 / decimate=0 / interlaced=0 / bluray_compat=0 / constrained_intra=0 / bframes=10 / b_pyramid=1 / b_adapt=2 / b_bias=0 / direct=3 / weightb=1 / open_gop=0 / weightp=2 / keyint=240 / keyint_min=24 / scenecut=40 / intra_refresh=0 / rc_lookahead=40 / rc=2pass / mbtree=1 / bitrate=6150 / ratetol=1.0 / qcomp=0.60 / qpmin=10 / qpmax=51 / qpstep=4 / cplxblur=20.0 / qblur=0.5 / ip_ratio=1.40 / aq=1:1.00
Язык : Russian
Default : Да
Forced : Нет
DURATION : 01:30:12.375000000
NUMBER_OF_FRAMES : 129897
NUMBER_OF_BYTES : 4158289642
_STATISTICS_WRITING_APP : mkvmerge v7.0.0 ('Where We Going') 64bit built on Jun 9 2014 15:16:27
_STATISTICS_WRITING_DATE_UTC : 2015-02-20 21:43:36
_STATISTICS_TAGS : BPS DURATION NUMBER_OF_FRAMES NUMBER_OF_BYTES
Аудио
Идентификатор : 2
Формат : AC-3
Формат/Информация : Audio Coding 3
Расширение режима : CM (complete main)
Параметр Endianness формата : Big
Идентификатор кодека : A_AC3
Продолжительность : 1 ч. 30 м.
Вид битрейта : Постоянный
Битрейт : 448 Кбит/сек
Каналы : 6 каналов
Расположение каналов : Front: L C R, Side: L R, LFE
Частота : 48,0 КГц
Битовая глубина : 16 бит
Метод сжатия : С потерями
Размер потока : 289 Мбайт (7%)
Заголовок : Дирижер. 2012. BDRip.1080p.
Язык : Russian
Default : Да
Forced : Нет
DURATION : 01:30:12.416000000
NUMBER_OF_FRAMES : 169138
NUMBER_OF_BYTES : 303095296
_STATISTICS_WRITING_APP : mkvmerge v7.0.0 ('Where We Going') 64bit built on Jun 9 2014 15:16:27
_STATISTICS_WRITING_DATE_UTC : 2015-02-20 21:43:36
_STATISTICS_TAGS : BPS DURATION NUMBER_OF_FRAMES NUMBER_OF_BYTES
Текст #1
Идентификатор : 3
Формат : UTF-8
Идентификатор кодека : S_TEXT/UTF8
Идентификатор кодека/Информация : UTF-8 Plain Text
Язык : Russian
Default : Да
Forced : Нет
Текст #2
Идентификатор : 4
Формат : UTF-8
Идентификатор кодека : S_TEXT/UTF8
Идентификатор кодека/Информация : UTF-8 Plain Text
Язык : English
Default : Нет
Forced : Нет



   Похожие торренты   Торрент   Размер 
В этой теме нет новых непрочитанных сообщений. Дирижёр (2012) BDRip-AVC от leonardo 59 | Лицензия

16 | 2

1.3 ГБ

В этой теме нет новых непрочитанных сообщений. Дирижёр (2012) BDRip от HQCLUB | Лицензия

16 | 2

1.45 ГБ

В этой теме нет новых непрочитанных сообщений. Дирижёр (2012) BDRip 720p от leonardo 59 | Лицензия

6 | 6

2.04 ГБ

В этой теме нет новых непрочитанных сообщений. Дирижёр (2012) DVD9 | Лицензия

1 | 2

7.19 ГБ

В этой теме нет новых непрочитанных сообщений. Дирижёр (2012) HDRip от Scarabey | Лицензия

42 | 3

1.41 ГБ

В этой теме нет новых непрочитанных сообщений. Дирижёр (2012) HDRip от Scarabey | Лицензия

8 | 3

741.28 МБ

В этой теме нет новых непрочитанных сообщений. Дирижёр (2012) Blu-Ray

0 | 2

23.05 ГБ




Вы не можете начинать темы
Вы не можете отвечать на сообщения
Вы не можете редактировать свои сообщения
Вы не можете удалять свои сообщения
Вы не можете добавлять вложения

Перейти:  
Для Мосгорсуда, Роскомнадзора и рекламодателей: mosgorsud-torrent[собачка]yandex.ru
 Вход
ppkBB3cker v.2 © 2008-2014 @ PPK
[ Time : 0.032s | 15 Queries | GZIP : Off ]

Торрент трекер RUTOR.IN, Не можете зайти на rutor.org? Какой новый адрес рутор? Какое зеркало рутор? Не работает rutor.org и зеркала? Тогда наш торрент специально для вас. Rutor.in неофициальное зеркало rutor. В случае если у Вас заблокирован rutor или вдруг Вы не можете на него зайти, то Вы без труда сможете скачать бесплатно и без рекламы последние новинки кино, игр, сериалов и прочего у нас, на Rutor.in. Не нужно использовать прокси, чтобы зайти на рутор, достаточно воспользоваться нашим ресурсом. Все новые фильмы, игры, сериалы, книги и музыка за 2013 и 2014 годы через торрент бесплатно. Скачивайте фильмы в хорошем качестве, игры для пк, xbox, playstation без регистрации. У нас вы найдете новые Зарубежные сериалы и Русские сериалы 2013, 2014, 2015 годов. Оставайтесь с нами, качайте любимые фильмы, игры, сериалы, книги и музыку.