img image001 image001 image001 image001 image001 image001 image001 image001 image001 image001 image001 image001 image001 image001 image001

Planets Sun Sun Sun
Статистика раздачи
Автор: Nickolas3434 | Размер: 3.86 ГБ | Добавлен: 25 фев 2015
Раздают: 12    Качают: 8
Скачать торрент
Скачать торрент
Описание торрента

СообщениеДобавлено: 25 фев 2015 


Информация о фильме
Оригинальное название: Акция
Год выхода: 1987
Жанр: Военный
Режиссер: Владимир Шамшурин
В ролях: Борис Галкин, Георгий Юматов, Олег Стриженов, Александр Новиков (II), Артём Каминский, Борис Никифоров, Сергей Десницкий, Виталий Зикора, Александр Январёв, Владимир Мышкин
О фильме: Лето 1943 года. Советскому командованию становится известно, что на оккупированной территории Украины действует специальная разведшкола по подготовке разведчиков и диверсантов, одним из руководителей и преподавателей которой работает предатель Родины, опытный разведчик Кареев. Для нейтрализации немецкой разведшколы было решено изъять её архив…

Страна: СССР
Студия: Мосфильм
Продолжительность: 01:26:25
Язык: Русский
Файл
Кодек: MPEG-2
Качество: DVD-5
Видео: MPEG2, PAL 4:3 (720x576) VBR, 25,000 кадр/с
Звук: Русский 2.0(384 Kbps)
Title:
Size: 3.86 Gb ( 4 050 520 KBytes ) - DVD-5
Enabled regions: 1, 2, 3, 4, 5, 6, 7, 8
VTS_01 :
Play Length: 01:26:25
Video: PAL 4:3 (704x576) VBR
Audio:
Russian (Dolby AC3, 2 ch)
Menu Video:
PAL 4:3 (704x576) VBR
Menu Audio:
Not specified (Dolby AC3, 2 ch)
Menu Subtitles:
Not specified
Menu English Language Unit :
Root Menu
Общее
Полное имя : D:ААА2АКЦИЯVIDEO_TSVTS_01_1.VOB
Формат : MPEG-PS
Размер файла : 1024 Мбайт
Продолжительность : 26 м.
Режим общего битрейта : Переменный
Общий поток : 5505 Кбит/сек
Видео
Идентификатор : 224 (0xE0)
Формат : MPEG Video
Версия формата : Version 2
Профиль формата : Main@Main
Параметр BVOP формата : Да
Параметр матрицы формата : Выборочная
Параметр GOP формата : M=3, N=12
Продолжительность : 26 м.
Вид битрейта : Переменный
Битрейт : 5011 Кбит/сек
Максимальный битрейт : 9000 Кбит/сек
Ширина : 720 пикселей
Высота : 576 пикселей
Соотношение сторон : 4:3
Частота кадров : 25,000 кадров/сек
Стандарт вещания : PAL
Цветовое пространство : YUV
Субдискретизация насыщенности : 4:2:0
Битовая глубина : 8 бит
Тип развёртки : Чересстрочная
Порядок развёртки : Верхнее поле первое
Метод сжатия : С потерями
Бит/(Пиксели*Кадры) : 0.483
TimeCode_FirstFrame : 00:00:00:00
TimeCode_Source : Group of pictures header
Размер потока : 932 Мбайт (91%)
Аудио
Идентификатор : 189 (0xBD)-128 (0x80)
Формат : AC-3
Формат/Информация : Audio Coding 3
Расширение режима : CM (complete main)
Параметр Endianness формата : Big
Режим смешивания : DVD-Video
Продолжительность : 26 м.
Вид битрейта : Постоянный
Битрейт : 384 Кбит/сек
Каналы : 2 канала
Расположение каналов : Front: L R
Частота : 48,0 КГц
Битовая глубина : 16 бит
Метод сжатия : С потерями
Задержка видео : -80 мс.
Размер потока : 71,4 Мбайт (7%)
Меню



   Похожие торренты   Торрент   Размер 
В этой теме нет новых непрочитанных сообщений. Акция (1987) DVDRip

27 | 4

1.37 ГБ

В этой теме нет новых непрочитанных сообщений. Акция (1987) SATRip от New-Team

120 | 25

744.5 МБ

В этой теме нет новых непрочитанных сообщений. Акция (1987) SATRip-AVC от ExKinoRay

115 | 21

1.52 ГБ

В этой теме нет новых непрочитанных сообщений. Акция (1987) SATRip от New-Team

116 | 42

1.46 ГБ

В этой теме нет новых непрочитанных сообщений. Акция (1987) SATRip-AVC от New-Team

83 | 10

1.46 ГБ

В этой теме нет новых непрочитанных сообщений. Анекдоты от Пусяни - Акция для мужика (2016) MP3

162 | 26

22.41 МБ

В этой теме нет новых непрочитанных сообщений. Игорь Сукачёв - Акция «Нонсенс» (1991) FLAC

0 | 4

246.53 МБ




Вы не можете начинать темы
Вы не можете отвечать на сообщения
Вы не можете редактировать свои сообщения
Вы не можете удалять свои сообщения
Вы не можете добавлять вложения

Перейти:  
Для Мосгорсуда, Роскомнадзора и рекламодателей: mosgorsud-torrent[собачка]yandex.ru
 Вход
ppkBB3cker v.2 © 2008-2014 @ PPK
[ Time : 0.034s | 14 Queries | GZIP : Off ]

Торрент трекер RUTOR.IN, Не можете зайти на rutor.org? Какой новый адрес рутор? Какое зеркало рутор? Не работает rutor.org и зеркала? Тогда наш торрент специально для вас. Rutor.in неофициальное зеркало rutor. В случае если у Вас заблокирован rutor или вдруг Вы не можете на него зайти, то Вы без труда сможете скачать бесплатно и без рекламы последние новинки кино, игр, сериалов и прочего у нас, на Rutor.in. Не нужно использовать прокси, чтобы зайти на рутор, достаточно воспользоваться нашим ресурсом. Все новые фильмы, игры, сериалы, книги и музыка за 2013 и 2014 годы через торрент бесплатно. Скачивайте фильмы в хорошем качестве, игры для пк, xbox, playstation без регистрации. У нас вы найдете новые Зарубежные сериалы и Русские сериалы 2013, 2014, 2015 годов. Оставайтесь с нами, качайте любимые фильмы, игры, сериалы, книги и музыку.