img image001 image001 image001 image001 image001 image001 image001 image001 image001 image001 image001 image001 image001 image001 image001

Planets Sun Sun Sun
Статистика раздачи
Автор: Nickolas3434 | Размер: 1.46 ГБ | Добавлен: 25 фев 2015
Раздают: 153    Качают: 10
Скачать торрент
Скачать торрент
Описание торрента

СообщениеДобавлено: 25 фев 2015 


АНОНСЫ МОИХ РИПОВ! ЛУЧШИЕ ФИЛЬМЫ И СЕРИАЛЫ ВСЕЙ ПЛАНЕТЫ! Подпишись :)

На Верхней Масловке

Страна: Россия
Год выпуска: 2004
Жанр: драма
Продолжительность: 01:55:25
Перевод: не требуется
Режиссер: Константин Худяков
В ролях: Алиса Фрейндлих, Евгений Миронов, Алёна Бабенко, Евгений Князев, Екатерина Гусева, Дмитрий Куличков, Илья Рутберг
Описание: Анна Борисовна — в прошлом знаменитая скульпторша, которая покоряла в свое время российскую и французскую столицы. Теперь ей за 80, но, несмотря на преклонный возраст, она сохраняет ясность и живость ума, меткий юмор и интерес к жизни.
Петр — театровед по образованию, режиссер самодеятельного театра. Когда-то он с успехом начинал, много публиковался, но потом сдал и так и не смог сделать что-то заметное в искусстве. Уже много лет, не имея собственного жилья в Москве, он живет у Анны Борисовны в квартире на Верхней Масловке, ухаживает за ней, помогает по хозяйству.
Взаимоотношения этих людей противоречивы и загадочны, между ними огромная разница в возрасте и в эмоциональном складе. Порой кажется, что Анна Борисовна и Петр ненавидят друг друга. Но что же тогда удерживает их вместе столько лет?

Качество: DVDRip [DVD9]
Формат: AVI
Видео кодек: XviD
Аудио кодек: AC3
Видео: 656x480 (1.37:1), 25 fps, XviD build 73 ~1609 kbps avg, 0.20 bit/pixel
Аудио: 48 kHz, AC3 Dolby Digital, 2/0 (L,R) ch, ~192 kbps

Раздача от:


D:Мои рипыNa.verh.maslovke.2005.dvdrip.dexter_lex.avi
General
Complete name : D:Мои рипыNa.verh.maslovke.2005.dvdrip.dexter_lex.avi
Format : AVI
Format/Info : Audio Video Interleave
File size : 1.46 GiB
Duration : 1h 55mn
Overall bit rate : 1 812 Kbps
Movie name : Na.verh.maslovke.2005.dvdrip.dexter_lex
Director : dexter lex
Writing application : VirtualDubMod 1.5.10.3 | www.virtualdub-fr.org || (build 2550/release)
Video #0
ID : 0
Format : MPEG-4 Visual
Format profile : Advanced Simple@L5
Format settings, BVOP : 1
Format settings, QPel : No
Format settings, GMC : No warppoints
Format settings, Matrix : Custom
Codec ID : XVID
Codec ID/Hint : XviD
Duration : 1h 55mn
Bit rate : 1 610 Kbps
Width : 656 pixels
Height : 480 pixels
Display aspect ratio : 4:3
Frame rate : 25.000 fps
Color space : YUV
Chroma subsampling : 4:2:0
Bit depth : 8 bits
Scan type : Progressive
Compression mode : Lossy
Bits/(Pixel*Frame) : 0.205
Stream size : 1.30 GiB (89%)
Writing library : XviD 73
Audio #1
ID : 1
Format : AC-3
Format/Info : Audio Coding 3
Mode extension : CM (complete main)
Codec ID : 2000
Duration : 1h 55mn
Bit rate mode : Constant
Bit rate : 192 Kbps
Channel(s) : 2 channels
Channel positions : Front: L R
Sampling rate : 48.0 KHz
Bit depth : 16 bits
Compression mode : Lossy
Stream size : 159 MiB (11%)
Alignment : Split accross interleaves
Interleave, duration : 40 ms (1.00 video frame)
Interleave, preload duration : 500 ms



   Похожие торренты   Торрент   Размер 
В этой теме нет новых непрочитанных сообщений. На Верхней Масловке (2004) DVDRip-AVC

13 | 5

2.05 ГБ

В этой теме нет новых непрочитанных сообщений. На Верхней Масловке (2004) DVDRip от olegek70

7 | 2

2.05 ГБ

В этой теме нет новых непрочитанных сообщений. На Верхней Масловке (2004) DVDRip от olegek70

80 | 4

1.45 ГБ

В этой теме нет новых непрочитанных сообщений. Переполох в отеле / 3 шведки в Верхней Баварии / Drei Schwedinnen in Oberbayern (1977) DVDRip

12 | 7

1.37 ГБ

В этой теме нет новых непрочитанных сообщений. Переполох в отеле / 3 шведки в Верхней Баварии / Drei Schwedinnen in Oberbayern (1977) DVDRip

4 | 3

1.26 ГБ

В этой теме нет новых непрочитанных сообщений. Боец [01-12 из 12] (2004) DVDRip от New-Team

226 | 72

4.37 ГБ

В этой теме нет новых непрочитанных сообщений. Боец [01-12 из 12] (2004) DVDRip-AVC от New-Team

657 | 294

6.56 ГБ




Вы не можете начинать темы
Вы не можете отвечать на сообщения
Вы не можете редактировать свои сообщения
Вы не можете удалять свои сообщения
Вы не можете добавлять вложения

Перейти:  
Для Мосгорсуда, Роскомнадзора и рекламодателей: mosgorsud-torrent[собачка]yandex.ru
 Вход
ppkBB3cker v.2 © 2008-2014 @ PPK
[ Time : 0.203s | 16 Queries | GZIP : Off ]

cron