img image001 image001 image001 image001 image001 image001 image001 image001 image001 image001 image001 image001 image001 image001 image001

Planets Sun Sun Sun
Статистика раздачи
Автор: Nickolas3434 | Размер: 745.7 МБ | Добавлен: 25 фев 2015
Раздают: 50    Качают: 8
Скачать торрент
Скачать торрент
Описание торрента

СообщениеДобавлено: 25 фев 2015 

Информация о фильме
Название: Самый лучший фильм 2
Год выхода: 2009
Жанр: Комедия, Приключения
Продолжительность: 01:21:36
Режиссер: Олег Фомин
Сценарий: Артак Гаспарян, Гарик Харламов, Михаил Гуликов
Композитор: Виталий Кудрин
В ролях: Гарик Харламов, Тимур Батрутдинов, Михаил Галустян, Дмитрий Хрусталев, Олег Верещагин, Дмитрий Нагиев, Александр Баширов, Сергей Лазарев, Сергей Зверев, Екатерина Конисевич, Фёдор Бондарчук
О фильме: Четверо закадычных друзей - Моряк, Актер, Мажор и Димати - после долгой разлуки встречаются в московском кафе отметить день рождения Мажора. На сей раз у них есть наличные, чтобы расплатиться с официанткой. И бегать по городу в поисках денег они будут совершенно по другой причине. Мажора похитили и требуют выкуп - миллион евро. Чем друзья будут расплачиваться с бандитами, кто найдет новую любовь, а вместе с ней и приключения на все органы жизнедеятельности, кому придется испытать все тяготы сложного пути шоу-бизнеса к популярности, каково рэпперу кавказской наружности гулять одному по безлюдным улицам?! Но все это впереди, а пока они молоды, красивы, полны сил, надежд и ждут приключений!!!

Страна: Россия
Студия: ТНТ, Comedy Club Production
Перевод: Не требуется (оригинальный)
Файл
Формат: avi
Качество: DVDRip (DVD5)
Видео: XviD, 688x304, 25fps, 1140kbps
Аудио: MPEG Layer 3, 2ch, 48000Hz, 128kbps

General
Complete name : Samyi.Luchshii.Film.2.2009.O.DVDRip.700.MediaClub.CurHaJI.avi
Format : AVI
Format/Info : Audio Video Interleave
File size : 746 MiB
Duration : 1h 21mn
Overall bit rate : 1 278 Kbps
Movie name : Samyi.Luchshii.Film.2.2009.O.DVDRip.700.MediaClub.CurHaJI
Writing application : VirtualDubMod 1.5.10.3 | www.virtualdub-fr.org || (build 2550/release)
Writing library : VirtualDub build 35491/release
Video
ID : 0
Format : MPEG-4 Visual
Format profile : Advanced Simple@L5
Format settings, BVOP : 2
Format settings, QPel : No
Format settings, GMC : No warppoints
Format settings, Matrix : Custom
Codec ID : XVID
Codec ID/Hint : XviD
Duration : 1h 21mn
Bit rate : 1 140 Kbps
Width : 688 pixels
Height : 304 pixels
Display aspect ratio : 2.25:1
Frame rate : 25.000 fps
Color space : YUV
Chroma subsampling : 4:2:0
Bit depth : 8 bits
Scan type : Progressive
Compression mode : Lossy
Bits/(Pixel*Frame) : 0.218
Stream size : 665 MiB (89%)
Writing library : XviD 1.2.1 (UTC 2008-12-04)
Audio
ID : 1
Format : MPEG Audio
Format version : Version 1
Format profile : Layer 3
Codec ID : 55
Codec ID/Hint : MP3
Duration : 1h 21mn
Bit rate mode : Constant
Bit rate : 128 Kbps
Channel(s) : 2 channels
Sampling rate : 48.0 KHz
Compression mode : Lossy
Stream size : 74.7 MiB (10%)
Alignment : Aligned on interleaves
Interleave, duration : 40 ms (1.00 video frame)
Interleave, preload duration : 504 ms
Writing library : L3.99r
Encoding settings : -m s -V 4 -q 2 -lowpass 17 -b 128


Релиз от:



   Похожие торренты   Торрент   Размер 
В этой теме нет новых непрочитанных сообщений. Фильм, фильм, фильм. Сборник мультфильмов (1968-1995) DVDRip

49 | 8

873.29 МБ

В этой теме нет новых непрочитанных сообщений. Фильм, фильм, фильм (1968) DVDRip от Lukavaya

37 | 10

370.36 МБ

В этой теме нет новых непрочитанных сообщений. Фильм, Фильм, Фильм (1968) DVDRip

37 | 6

154.48 МБ

В этой теме нет новых непрочитанных сообщений. Скиталец. Фильм 4. Кладоискатель в Белоруссии. (2009) DVDRip

21 | 3

1.36 ГБ

В этой теме нет новых непрочитанных сообщений. Самый лучший фильм 2 (2009) DVDRip от ivandubskoj

431 | 27

1.46 ГБ

В этой теме нет новых непрочитанных сообщений. Самый лучший фильм 2 (2009) DVDRip от PlanetaUA

119 | 11

1.36 ГБ

В этой теме нет новых непрочитанных сообщений. Бабичье дело. Фильм о домашних родах (2009) DVDRip

3 | 3

2.42 ГБ




Вы не можете начинать темы
Вы не можете отвечать на сообщения
Вы не можете редактировать свои сообщения
Вы не можете удалять свои сообщения
Вы не можете добавлять вложения

Перейти:  
Для Мосгорсуда, Роскомнадзора и рекламодателей: mosgorsud-torrent[собачка]yandex.ru
 Вход
ppkBB3cker v.2 © 2008-2014 @ PPK
[ Time : 0.026s | 15 Queries | GZIP : Off ]

Торрент трекер RUTOR.IN, Не можете зайти на rutor.org? Какой новый адрес рутор? Какое зеркало рутор? Не работает rutor.org и зеркала? Тогда наш торрент специально для вас. Rutor.in неофициальное зеркало rutor. В случае если у Вас заблокирован rutor или вдруг Вы не можете на него зайти, то Вы без труда сможете скачать бесплатно и без рекламы последние новинки кино, игр, сериалов и прочего у нас, на Rutor.in. Не нужно использовать прокси, чтобы зайти на рутор, достаточно воспользоваться нашим ресурсом. Все новые фильмы, игры, сериалы, книги и музыка за 2013 и 2014 годы через торрент бесплатно. Скачивайте фильмы в хорошем качестве, игры для пк, xbox, playstation без регистрации. У нас вы найдете новые Зарубежные сериалы и Русские сериалы 2013, 2014, 2015 годов. Оставайтесь с нами, качайте любимые фильмы, игры, сериалы, книги и музыку.