img image001 image001 image001 image001 image001 image001 image001 image001 image001 image001 image001 image001 image001 image001 image001

Planets Sun Sun Sun
Статистика раздачи
Автор: Nickolas3434 | Размер: 1.46 ГБ | Добавлен: 26 фев 2015
Раздают: 27    Качают: 5
Скачать торрент
Скачать торрент
Описание торрента

СообщениеДобавлено: 26 фев 2015 

Страна: Россия, Франция, США
Производство: A.L. Production, Filmstudio 12A, Stargaze Productions
Жанр: комедия
Год выпуска: 1993
Продолжительность: 01:31:21
Перевод: Не требуется
Cубтитры: нет
Оригинальная аудиодорожка: русский
Режиссер: Георгий Шенгелия
В ролях:
Владимир Ильин, Ирина Феофанова, Юрий Сенкевич, Татьяна Догилева, Николай Пастухов, Ренат Давлетьяров, Борис Людмер, Александр Боровиков, Александр Каданев, Александр Кулямин, Вадим Захарченко...
Описание:
Бывший русский журналист Герман, находясь в эмиграции в Париже и влача полунищенское существование, получает известие о тяжелой болезни своего деда, знаменитого ученого-физика. Вернувшись в Россию, Герман узнает от умирающего деда о созданном им коридоре времени. Герой решает воспользоваться этим изобретением для поправки своего материального положения. Неоднократные перемещения в 60-е годы и обратно привели к многочисленным трагикомедийным ситуациям. Все бы ничего, но тут еще и власти заподозрили неладное… Преследуемый в прошлом и настоящем герой попадает в безвыходное положение, но…





Источник: DVD5 R5
Качество видео: DVDRip
Формат видео: AVI
Видео: 688x512 (4:3), 25 fps, XviD ~ 2082 kbps avg, 0.236 bit/pixel
Аудио: 48 kHz, Dolby Digital AC3 2.0, 192 kbps
Раздача от:
Общее
Полное имя : Strelec.neprikayannyy.1993.DVDRip_[New-team]_by_AVP_Studio.avi
Формат : AVI
Формат/Информация : Audio Video Interleave
Размер файла : 1,46 Гбайт
Продолжительность : 1 ч. 31 м.
Общий поток : 2284 Кбит/сек
Программа кодирования : VirtualDubModRus 1.5.10.2 (build 2542/release)
Библиотека кодирования : VirtualDubMod build 2542/release
Видео
Идентификатор : 0
Формат : MPEG-4 Visual
Профиль формата : Advanced Simple@L5
Параметр BVOP формата : 1
Параметр QPel формата : Нет
Параметр GMC формата : Без точки перехода
Параметр матрицы формата : Выборочная
Идентификатор кодека : XVID
Идентификатор кодека/Подсказка : XviD
Продолжительность : 1 ч. 31 м.
Битрейт : 2082 Кбит/сек
Ширина : 688 пикселей
Высота : 512 пикселей
Соотношение сторон : 4:3
Частота кадров : 25,000 кадров/сек
Цветовое пространство : YUV
Субдискретизация насыщенности : 4:2:0
Битовая глубина : 8 бит
Тип развёртки : Прогрессивная
Метод сжатия : С потерями
Бит/(Пиксели*Кадры) : 0.236
Размер потока : 1,33 Гбайт (91%)
Библиотека кодирования : XviD 73
Аудио
Идентификатор : 1
Формат : AC-3
Формат/Информация : Audio Coding 3
Расширение режима : CM (complete main)
Параметр Endianness формата : Big
Идентификатор кодека : 2000
Продолжительность : 1 ч. 31 м.
Вид битрейта : Постоянный
Битрейт : 192 Кбит/сек
Каналы : 2 канала
Расположение каналов : Front: L R
Частота : 48,0 КГц
Битовая глубина : 16 бит
Метод сжатия : С потерями
Размер потока : 125 Мбайт (8%)
Выравнивание : Разделение по промежуткам
Продолжительность промежутка : 40 мс. (1,00 видеокадр)
Время предзагрузки промежутка : 500 мс





   Похожие торренты   Торрент   Размер 
В этой теме нет новых непрочитанных сообщений. Стрелец неприкаянный (1993) DVDRip-AVC от New-Team

206 | 15

1.46 ГБ

В этой теме нет новых непрочитанных сообщений. Стрелец неприкаянный (1993) DVDRip от New-Team

21 | 47

746.31 МБ

В этой теме нет новых непрочитанных сообщений. Стрелец неприкаянный (1993) DVD5 от New-Team | Лицензия

62 | 12

3.94 ГБ

В этой теме нет новых непрочитанных сообщений. Стрелец неприкаянный (1993) DVDRip

9 | 4

700.38 МБ

В этой теме нет новых непрочитанных сообщений. Стрелец неприкаянный (1993) DVDRip

243 | 11

742.47 МБ

В этой теме нет новых непрочитанных сообщений. Стрелец неприкаянный (1993) DVDRip

25 | 7

1.45 ГБ

В этой теме нет новых непрочитанных сообщений. Стрелец неприкаянный (1993) DVDRip by FREEISLAND

320 | 10

2.44 ГБ




Вы не можете начинать темы
Вы не можете отвечать на сообщения
Вы не можете редактировать свои сообщения
Вы не можете удалять свои сообщения
Вы не можете добавлять вложения

Перейти:  
Для Мосгорсуда, Роскомнадзора и рекламодателей: mosgorsud-torrent[собачка]yandex.ru
 Вход
ppkBB3cker v.2 © 2008-2014 @ PPK
[ Time : 0.043s | 16 Queries | GZIP : Off ]

Торрент трекер RUTOR.IN, Не можете зайти на rutor.org? Какой новый адрес рутор? Какое зеркало рутор? Не работает rutor.org и зеркала? Тогда наш торрент специально для вас. Rutor.in неофициальное зеркало rutor. В случае если у Вас заблокирован rutor или вдруг Вы не можете на него зайти, то Вы без труда сможете скачать бесплатно и без рекламы последние новинки кино, игр, сериалов и прочего у нас, на Rutor.in. Не нужно использовать прокси, чтобы зайти на рутор, достаточно воспользоваться нашим ресурсом. Все новые фильмы, игры, сериалы, книги и музыка за 2013 и 2014 годы через торрент бесплатно. Скачивайте фильмы в хорошем качестве, игры для пк, xbox, playstation без регистрации. У нас вы найдете новые Зарубежные сериалы и Русские сериалы 2013, 2014, 2015 годов. Оставайтесь с нами, качайте любимые фильмы, игры, сериалы, книги и музыку.
cron