img image001 image001 image001 image001 image001 image001 image001 image001 image001 image001 image001 image001 image001 image001 image001

Planets Sun Sun Sun
Статистика раздачи
Автор: Nickolas3434 | Размер: 746.31 МБ | Добавлен: 25 фев 2015
Раздают: 35    Качают: 47
Скачать торрент
Скачать торрент
Описание торрента

СообщениеДобавлено: 25 фев 2015 

Страна: Россия, Франция, США
Производство: A.L. Production, Filmstudio 12A, Stargaze Productions
Жанр: комедия
Год выпуска: 1993
Продолжительность: 01:31:21
Перевод: Не требуется
Cубтитры: нет
Оригинальная аудиодорожка: русский
Режиссер: Георгий Шенгелия
В ролях:
Владимир Ильин, Ирина Феофанова, Юрий Сенкевич, Татьяна Догилева, Николай Пастухов, Ренат Давлетьяров, Борис Людмер, Александр Боровиков, Александр Каданев, Александр Кулямин, Вадим Захарченко...
Описание:
Бывший русский журналист Герман, находясь в эмиграции в Париже и влача полунищенское существование, получает известие о тяжелой болезни своего деда, знаменитого ученого-физика. Вернувшись в Россию, Герман узнает от умирающего деда о созданном им коридоре времени. Герой решает воспользоваться этим изобретением для поправки своего материального положения. Неоднократные перемещения в 60-е годы и обратно привели к многочисленным трагикомедийным ситуациям. Все бы ничего, но тут еще и власти заподозрили неладное… Преследуемый в прошлом и настоящем герой попадает в безвыходное положение, но…





Источник: DVD5 R5
Качество видео: DVDRip
Формат видео: AVI
Видео: 640x480 (4:3), 25 fps, XviD ~ 1005 kbps avg, 0.131 bit/pixel
Аудио: 48 kHz, MP3 2.0, 128 kbps
Раздача от:
Общее
Полное имя : Strelec.neprikayannyy.1993.DVDRip-745_[New-team]_by_AVP_Studio.avi
Формат : AVI
Формат/Информация : Audio Video Interleave
Размер файла : 746 Мбайт
Продолжительность : 1 ч. 31 м.
Общий поток : 1142 Кбит/сек
Программа кодирования : VirtualDubModRus 1.5.10.2 (build 2542/release)
Библиотека кодирования : VirtualDubMod build 2542/release
Видео
Идентификатор : 0
Формат : MPEG-4 Visual
Профиль формата : Advanced Simple@L5
Параметр BVOP формата : 1
Параметр QPel формата : Нет
Параметр GMC формата : Без точки перехода
Параметр матрицы формата : Выборочная
Идентификатор кодека : XVID
Идентификатор кодека/Подсказка : XviD
Продолжительность : 1 ч. 31 м.
Битрейт : 1005 Кбит/сек
Ширина : 640 пикселей
Высота : 480 пикселей
Соотношение сторон : 4:3
Частота кадров : 25,000 кадров/сек
Цветовое пространство : YUV
Субдискретизация насыщенности : 4:2:0
Битовая глубина : 8 бит
Тип развёртки : Прогрессивная
Метод сжатия : С потерями
Бит/(Пиксели*Кадры) : 0.131
Размер потока : 656 Мбайт (88%)
Библиотека кодирования : XviD 73
Аудио
Идентификатор : 1
Формат : MPEG Audio
Версия формата : Version 1
Профиль формата : Layer 3
Идентификатор кодека : 55
Идентификатор кодека/Подсказка : MP3
Продолжительность : 1 ч. 31 м.
Вид битрейта : Постоянный
Битрейт : 128 Кбит/сек
Каналы : 2 канала
Частота : 48,0 КГц
Метод сжатия : С потерями
Размер потока : 83,6 Мбайт (11%)
Выравнивание : Соединение по промежуткам
Продолжительность промежутка : 40 мс. (1,00 видеокадр)
Время предзагрузки промежутка : 504 мс.
Библиотека кодирования : LAME3.99r
Настройки программы : -m s -V 4 -q 2 -lowpass 17 -b 128





   Похожие торренты   Торрент   Размер 
В этой теме нет новых непрочитанных сообщений. Стрелец неприкаянный (1993) DVDRip от New-Team

26 | 6

1.46 ГБ

В этой теме нет новых непрочитанных сообщений. Стрелец неприкаянный (1993) DVDRip-AVC от New-Team

287 | 17

1.46 ГБ

В этой теме нет новых непрочитанных сообщений. Стрелец неприкаянный (1993) DVD5 от New-Team | Лицензия

66 | 13

3.94 ГБ

В этой теме нет новых непрочитанных сообщений. Стрелец неприкаянный (1993) DVDRip

25 | 7

1.45 ГБ

В этой теме нет новых непрочитанных сообщений. Стрелец неприкаянный (1993) DVDRip

9 | 4

700.38 МБ

В этой теме нет новых непрочитанных сообщений. Стрелец неприкаянный (1993) DVDRip

243 | 11

742.47 МБ

В этой теме нет новых непрочитанных сообщений. Стрелец неприкаянный (1993) DVDRip-AVC от BT-Club

1 | 7

1.55 ГБ




Вы не можете начинать темы
Вы не можете отвечать на сообщения
Вы не можете редактировать свои сообщения
Вы не можете удалять свои сообщения
Вы не можете добавлять вложения

Перейти:  
Для Мосгорсуда, Роскомнадзора и рекламодателей: mosgorsud-torrent[собачка]yandex.ru
 Вход
ppkBB3cker v.2 © 2008-2014 @ PPK
[ Time : 0.655s | 15 Queries | GZIP : On ]

Торрент трекер RUTOR.IN, Не можете зайти на rutor.org? Какой новый адрес рутор? Какое зеркало рутор? Не работает rutor.org и зеркала? Тогда наш торрент специально для вас. Rutor.in неофициальное зеркало rutor. В случае если у Вас заблокирован rutor или вдруг Вы не можете на него зайти, то Вы без труда сможете скачать бесплатно и без рекламы последние новинки кино, игр, сериалов и прочего у нас, на Rutor.in. Не нужно использовать прокси, чтобы зайти на рутор, достаточно воспользоваться нашим ресурсом. Все новые фильмы, игры, сериалы, книги и музыка за 2013 и 2014 годы через торрент бесплатно. Скачивайте фильмы в хорошем качестве, игры для пк, xbox, playstation без регистрации. У нас вы найдете новые Зарубежные сериалы и Русские сериалы 2013, 2014, 2015 годов. Оставайтесь с нами, качайте любимые фильмы, игры, сериалы, книги и музыку.