img image001 image001 image001 image001 image001 image001 image001 image001 image001 image001 image001 image001 image001 image001 image001

Planets Sun Sun Sun
Статистика раздачи
Автор: Nickolas3434 | Размер: 1.46 ГБ | Добавлен: 25 фев 2015
Раздают: 18    Качают: 6
Скачать торрент
Скачать торрент
Описание торрента

СообщениеДобавлено: 25 фев 2015 

Страна: СССР
Производство: Тбилисская киностудия
Жанр: драма, военный, биография
Год выпуска: 1942-1943
Продолжительность: 02:53:56 (01:26:40 + 01:27:16)
Перевод: Не требуется
Cубтитры: нет
Оригинальная аудиодорожка: русский
Режиссер: Михаил Чиаурели
В ролях:
Акакий Хорава, Верико Анджапаридзе, Лиана Асатиани, Зураб Лежава, Спартак Багашвили, Медея Джапаридзе, Шалва Гамбашидзе, Александр Жоржолиани, Александр Омиадзе, Георгий Шавгулидзе, Акакий Васадзе, Котэ Даушвили, Иван Перестиани, Серго Закариадзе, Караман Мгеладзе...
Описание: 17 век. Раздробленное на мелкие княжества Грузинское государство является предметом вожделений Турции и Ирана, полчища османов топчут грузинскую землю. Прославленный воин Георгий Саакадзе встает во главу народного войска и, заманив турок в горное ущелье, решает исход Сурамской битвы. Пользуясь расположением царя Лаурсаба II, Саакадзе начинает строительство крепостей на границах государства. Однако женитьба царя на Теклэ, сестре Георгия, порождают открытую злобу в кругу князей. Дружинники Шадимана, советника Лаурсаба, вероломно нападают на замок Саакадзе и вынуждают его вместе с семьей бежать в Персию. Шах Аббас доверяет Саакадзе возглавить персидское войско. После ряда победных походов Георгий Саакадзе по приказу шаха вторгается в пределы Грузии и теперь с помощью чужеземцев намерен усмирить непокорных феодалов и создать единое грузинское государство под скипетром Лаурсаба II. Однако, недооценив хитрость и жестокость шаха, а также силу объединившихся против него феодалов, Великий Моурави терпит поражение…





Источник: 2хDVD5 R5
Качество видео: DVDRip
Формат видео: AVI
Видео: 640x480 (4:3), 25 fps, XviD ~ 1062 kbps avg, 0.138 bit/pixel
Аудио: 48 kHz, MP3 2.0, 128 kbps
Раздача от:
Общее
Полное имя : Georgiy.Saakadze.1942-1943.DVDRip1,46_[New-team]_by_AVP_StudioЧасть 1.avi
Формат : AVI
Формат/Информация : Audio Video Interleave
Размер файла : 744 Мбайт
Продолжительность : 1 ч. 26 м.
Общий поток : 1200 Кбит/сек
Программа кодирования : VirtualDubModRus 1.5.10.2 (build 2542/release)
Библиотека кодирования : VirtualDubMod build 2542/release
Видео
Идентификатор : 0
Формат : MPEG-4 Visual
Профиль формата : Advanced Simple@L5
Параметр BVOP формата : 1
Параметр QPel формата : Нет
Параметр GMC формата : Без точки перехода
Параметр матрицы формата : Выборочная
Идентификатор кодека : XVID
Идентификатор кодека/Подсказка : XviD
Продолжительность : 1 ч. 26 м.
Битрейт : 1062 Кбит/сек
Ширина : 640 пикселей
Высота : 480 пикселей
Соотношение сторон : 4:3
Частота кадров : 25,000 кадров/сек
Цветовое пространство : YUV
Субдискретизация насыщенности : 4:2:0
Битовая глубина : 8 бит
Тип развёртки : Прогрессивная
Метод сжатия : С потерями
Бит/(Пиксели*Кадры) : 0.138
Размер потока : 658 Мбайт (89%)
Библиотека кодирования : XviD 73
Аудио
Идентификатор : 1
Формат : MPEG Audio
Версия формата : Version 1
Профиль формата : Layer 3
Идентификатор кодека : 55
Идентификатор кодека/Подсказка : MP3
Продолжительность : 1 ч. 26 м.
Вид битрейта : Постоянный
Битрейт : 128 Кбит/сек
Каналы : 2 канала
Частота : 48,0 КГц
Метод сжатия : С потерями
Размер потока : 79,3 Мбайт (11%)
Выравнивание : Соединение по промежуткам
Продолжительность промежутка : 40 мс. (1,00 видеокадр)
Время предзагрузки промежутка : 504 мс.
Библиотека кодирования : LAME3.99r
Настройки программы : -m s -V 4 -q 2 -lowpass 17 -b 128





   Похожие торренты   Торрент   Размер 
В этой теме нет новых непрочитанных сообщений. Георгий Саакадзе (1942-1943) DVDRip-AVC от New-Team

23 | 17

2.19 ГБ

В этой теме нет новых непрочитанных сообщений. Георгий Саакадзе (1942-1943) DVDRip от New-Team

5 | 11

2.19 ГБ

В этой теме нет новых непрочитанных сообщений. 1941, 1942, 1943 [S01-03] (2009-2013) DVDRip

316 | 289

31.09 ГБ

В этой теме нет новых непрочитанных сообщений. Сборник мультфильмов - Дональд Дак идет в армию / Donald Duck (1942-1943) DVDRip от Generalfilm

18 | 6

700 МБ

В этой теме нет новых непрочитанных сообщений. Кутузов (1943) DVDRip-AVC от New-Team

55 | 11

1.46 ГБ

В этой теме нет новых непрочитанных сообщений. Сталинград (1943) DVDRip-AVC от New-Team

180 | 11

1.09 ГБ

В этой теме нет новых непрочитанных сообщений. Давид Бек (1943) DVDRip от New-Team

7 | 5

1.42 ГБ




Вы не можете начинать темы
Вы не можете отвечать на сообщения
Вы не можете редактировать свои сообщения
Вы не можете удалять свои сообщения
Вы не можете добавлять вложения

Перейти:  
Для Мосгорсуда, Роскомнадзора и рекламодателей: mosgorsud-torrent[собачка]yandex.ru
 Вход
ppkBB3cker v.2 © 2008-2014 @ PPK
[ Time : 0.040s | 16 Queries | GZIP : On ]

Торрент трекер RUTOR.IN, Не можете зайти на rutor.org? Какой новый адрес рутор? Какое зеркало рутор? Не работает rutor.org и зеркала? Тогда наш торрент специально для вас. Rutor.in неофициальное зеркало rutor. В случае если у Вас заблокирован rutor или вдруг Вы не можете на него зайти, то Вы без труда сможете скачать бесплатно и без рекламы последние новинки кино, игр, сериалов и прочего у нас, на Rutor.in. Не нужно использовать прокси, чтобы зайти на рутор, достаточно воспользоваться нашим ресурсом. Все новые фильмы, игры, сериалы, книги и музыка за 2013 и 2014 годы через торрент бесплатно. Скачивайте фильмы в хорошем качестве, игры для пк, xbox, playstation без регистрации. У нас вы найдете новые Зарубежные сериалы и Русские сериалы 2013, 2014, 2015 годов. Оставайтесь с нами, качайте любимые фильмы, игры, сериалы, книги и музыку.