img image001 image001 image001 image001 image001 image001 image001 image001 image001 image001 image001 image001 image001 image001 image001

Planets Sun Sun Sun
Статистика раздачи
Автор: Nickolas3434 | Размер: 2.19 ГБ | Добавлен: 25 фев 2015, 14:47
Раздают: 23    Качают: 17
Скачать торрент
Скачать торрент
Описание торрента

СообщениеДобавлено: 25 фев 2015, 14:47 

Страна: СССР
Производство: Тбилисская киностудия
Жанр: драма, военный, биография
Год выпуска: 1942-1943
Продолжительность: 02:53:56 (01:26:40 + 01:27:16)
Перевод: Не требуется
Cубтитры: нет
Оригинальная аудиодорожка: русский
Режиссер: Михаил Чиаурели
В ролях:
Акакий Хорава, Верико Анджапаридзе, Лиана Асатиани, Зураб Лежава, Спартак Багашвили, Медея Джапаридзе, Шалва Гамбашидзе, Александр Жоржолиани, Александр Омиадзе, Георгий Шавгулидзе, Акакий Васадзе, Котэ Даушвили, Иван Перестиани, Серго Закариадзе, Караман Мгеладзе...
Описание: 17 век. Раздробленное на мелкие княжества Грузинское государство является предметом вожделений Турции и Ирана, полчища османов топчут грузинскую землю. Прославленный воин Георгий Саакадзе встает во главу народного войска и, заманив турок в горное ущелье, решает исход Сурамской битвы. Пользуясь расположением царя Лаурсаба II, Саакадзе начинает строительство крепостей на границах государства. Однако женитьба царя на Теклэ, сестре Георгия, порождают открытую злобу в кругу князей. Дружинники Шадимана, советника Лаурсаба, вероломно нападают на замок Саакадзе и вынуждают его вместе с семьей бежать в Персию. Шах Аббас доверяет Саакадзе возглавить персидское войско. После ряда победных походов Георгий Саакадзе по приказу шаха вторгается в пределы Грузии и теперь с помощью чужеземцев намерен усмирить непокорных феодалов и создать единое грузинское государство под скипетром Лаурсаба II. Однако, недооценив хитрость и жестокость шаха, а также силу объединившихся против него феодалов, Великий Моурави терпит поражение…





Источник: 2хDVD5 R5
Качество видео: DVDRip-AVC
Формат видео: MKV
Видео: 704->762x572 (4:3), 25 fps, H264 ~ 1605 kbps avg, 0.159 bit/pixel
Аудио: 48 kHz, Dolby Digital AC3 2.0, 192 kbps
Раздача от:
Общее
Полное имя : Georgiy.Saakadze.1942-1943.DVDRip-AVC_[New-team]_by_AVP_StudioЧасть 1.mkv
Формат : Matroska
Версия формата : Version 2
Размер файла : 1,09 Гбайт
Продолжительность : 1 ч. 26 м.
Общий поток : 1799 Кбит/сек
Дата кодирования : UTC 2015-02-24 14:47:04
Программа кодирования : mkvmerge v6.1.0 ('Old Devil') built on Mar 4 2013 09:10:42
Библиотека кодирования : libebml v1.3.0 + libmatroska v1.4.0
Видео
Идентификатор : 1
Формат : AVC
Формат/Информация : Advanced Video Codec
Профиль формата : High@L4.1
Параметр CABAC формата : Да
Параметр ReFrames формата : 8 кадров
Идентификатор кодека : V_MPEG4/ISO/AVC
Продолжительность : 1 ч. 26 м.
Битрейт : 1605 Кбит/сек
Ширина : 704 пикселя
Высота : 572 пикселя
Соотношение сторон : 4:3
Режим частоты кадров : Постоянный
Частота кадров : 25,000 кадров/сек
Цветовое пространство : YUV
Субдискретизация насыщенности : 4:2:0
Битовая глубина : 8 бит
Тип развёртки : Прогрессивная
Бит/(Пиксели*Кадры) : 0.159
Размер потока : 974 Мбайт (87%)
Библиотека кодирования : x264 core 138 r2356 a1d3d17
Настройки программы : cabac=1 / ref=8 / deblock=1:-2:-1 / analyse=0x3:0x113 / me=umh / subme=10 / psy=1 / psy_rd=1.00:0.05 / mixed_ref=1 / me_range=32 / chroma_me=1 / trellis=2 / 8x8dct=1 / cqm=0 / deadzone=21,11 / fast_pskip=0 / chroma_qp_offset=-3 / threads=6 / lookahead_threads=1 / sliced_threads=0 / nr=0 / decimate=0 / interlaced=0 / bluray_compat=0 / constrained_intra=0 / bframes=8 / b_pyramid=2 / b_adapt=2 / b_bias=0 / direct=3 / weightb=1 / open_gop=0 / weightp=2 / keyint=250 / keyint_min=25 / scenecut=40 / intra_refresh=0 / rc=2pass / mbtree=0 / bitrate=1605 / ratetol=1.0 / qcomp=0.60 / qpmin=0 / qpmax=69 / qpstep=4 / cplxblur=20.0 / qblur=0.5 / ip_ratio=1.40 / pb_ratio=1.30 / aq=1:1.00
Default : Да
Forced : Нет
Аудио
Идентификатор : 2
Формат : AC-3
Формат/Информация : Audio Coding 3
Расширение режима : CM (complete main)
Параметр Endianness формата : Big
Идентификатор кодека : A_AC3
Продолжительность : 1 ч. 26 м.
Вид битрейта : Постоянный
Битрейт : 192 Кбит/сек
Каналы : 2 канала
Расположение каналов : Front: L R
Частота : 48,0 КГц
Битовая глубина : 16 бит
Метод сжатия : С потерями
Размер потока : 119 Мбайт (11%)
Default : Да
Forced : Нет





   Похожие торренты   Торрент   Размер 
В этой теме нет новых непрочитанных сообщений. Георгий Саакадзе (1942-1943) DVDRip от New-Team

18 | 6

1.46 ГБ

В этой теме нет новых непрочитанных сообщений. Георгий Саакадзе (1942-1943) DVDRip от New-Team

5 | 11

2.19 ГБ

В этой теме нет новых непрочитанных сообщений. 1941, 1942, 1943 [S01-03] (2009-2013) DVDRip

316 | 289

31.09 ГБ

В этой теме нет новых непрочитанных сообщений. Сборник мультфильмов - Дональд Дак идет в армию / Donald Duck (1942-1943) DVDRip от Generalfilm

18 | 6

700 МБ

В этой теме нет новых непрочитанных сообщений. Мы с Урала (1943) DVDRip от New-Team

7 | 4

1.09 ГБ

В этой теме нет новых непрочитанных сообщений. Радуга (1943) DVDRip от New-Team

124 | 14

744.65 МБ

В этой теме нет новых непрочитанных сообщений. Радуга (1943) DVDRip от New-Team

17 | 9

1.46 ГБ




Вы не можете начинать темы
Вы не можете отвечать на сообщения
Вы не можете редактировать свои сообщения
Вы не можете удалять свои сообщения
Вы не можете добавлять вложения

Перейти:  
Для Мосгорсуда, Роскомнадзора и рекламодателей: mosgorsud-torrent[собачка]yandex.ru
Настройки
ppkBB3cker v.2 © 2008-2014 @ PPK
[ Time : 0.025s | 16 Queries | GZIP : Off ]
CGP [Extreme] output time : 0.00023s | 0 Queries | GZIP : Off

Торрент трекер RUTOR.IN, Не можете зайти на rutor.org? Какой новый адрес рутор? Какое зеркало рутор? Не работает rutor.org и зеркала? Тогда наш торрент специально для вас. Rutor.in неофициальное зеркало rutor. В случае если у Вас заблокирован rutor или вдруг Вы не можете на него зайти, то Вы без труда сможете скачать бесплатно и без рекламы последние новинки кино, игр, сериалов и прочего у нас, на Rutor.in. Не нужно использовать прокси, чтобы зайти на рутор, достаточно воспользоваться нашим ресурсом. Все новые фильмы, игры, сериалы, книги и музыка за 2013 и 2014 годы через торрент бесплатно. Скачивайте фильмы в хорошем качестве, игры для пк, xbox, playstation без регистрации. У нас вы найдете новые Зарубежные сериалы и Русские сериалы 2013, 2014, 2015 годов. Оставайтесь с нами, качайте любимые фильмы, игры, сериалы, книги и музыку.