img image001 image001 image001 image001 image001 image001 image001 image001 image001 image001 image001 image001 image001 image001 image001

Planets Sun Sun Sun
Статистика раздачи
Автор: Nickolas3434 | Размер: 5.82 ГБ | Добавлен: 27 фев 2015
Раздают: 100    Качают: 12
Скачать торрент
Скачать торрент
Описание торрента

СообщениеДобавлено: 27 фев 2015 


Информация о фильме
Оригинальное название: Василиса
Год выхода: 2014
Жанр: Исторический
Режиссер: Антон Сиверс
В ролях: Светлана Ходченкова, Дмитрий Соломыкин, Жером Кузан, Кристина Кузьмина, Игорь Черневич, Андрей Ильин, Ирина Розанова, Илья Носков, Андрей Носков, Жоанн Морио, Оливье Сиу, Сесиль Мари Жендр, Ксения Разина, Коля Спиридонов, Фёдор Никитин, Валерий Немешаев, Юрий Кузнецов, Алексей Барабаш, Владимир Матвеев, Юрий Батурин
О фильме: Он дворянин, а она — крепостная крестьянка… Им не суждено быть вместе. Возможно, так и закончилась бы эта любовная история, если бы не война. Наполеон вторгся в пределы Российской Империи, и этот день изменил привычный уклад и сословные предрассудки. Мир больше никогда не станет прежним. Война пишет новую историю любви.

Страна: Россия
Студия: Всемирные Русские Студии
Продолжительность: 01:39:50
Язык: Русский
Файл
Кодек: MPEG-2
Качество: DVD-9
Видео: MPEG2, PAL 16:9 (720x576) VBR, 24,000 кадр/с
Звук: Русский DD 5.1 (448 Kbps)
Title:
Size: 5.82 Gb ( 6 101 646 KBytes ) - DVD-9
Enabled regions: 1, 2, 3, 4, 5, 6, 7, 8
VTS_01 :
Play Length: 01:39:50
Video: PAL 16:9 (720x576) VBR, Auto Pan&Scan
Audio:
Russian (Dolby AC3, 6 ch)
Menu Video:
PAL 4:3 (704x576) VBR
Menu English Language Unit :
Root Menu
Общее
Полное имя : D:ААА2ВАСИЛИСАVIDEO_TSVTS_01_1.VOB
Формат : MPEG-PS
Размер файла : 1000 Мбайт
Продолжительность : 17 м.
Режим общего битрейта : Переменный
Общий поток : 8107 Кбит/сек
Видео
Идентификатор : 224 (0xE0)
Формат : MPEG Video
Версия формата : Version 2
Профиль формата : Main@Main
Параметр BVOP формата : Да
Параметр матрицы формата : По умолчанию
Параметр GOP формата : M=3, N=12
Продолжительность : 17 м.
Вид битрейта : Переменный
Битрейт : 7498 Кбит/сек
Максимальный битрейт : 8816 Кбит/сек
Ширина : 720 пикселей
Высота : 576 пикселей
Соотношение сторон : 16:9
Частота кадров : 24,000 кадра/сек
Стандарт вещания : PAL
Цветовое пространство : YUV
Субдискретизация насыщенности : 4:2:0
Битовая глубина : 8 бит
Тип развёртки : Прогрессивная
Порядок развёртки : 2:2:2:2:2:2:2:2:2:2:2:3 Pulldown
Метод сжатия : С потерями
Бит/(Пиксели*Кадры) : 0.753
TimeCode_FirstFrame : 00:00:00:00
TimeCode_Source : Group of pictures header
Размер потока : 925 Мбайт (92%)
Аудио
Идентификатор : 189 (0xBD)-128 (0x80)
Формат : AC-3
Формат/Информация : Audio Coding 3
Расширение режима : CM (complete main)
Параметр Endianness формата : Big
Режим смешивания : DVD-Video
Продолжительность : 17 м.
Вид битрейта : Постоянный
Битрейт : 448 Кбит/сек
Каналы : 6 каналов
Расположение каналов : Front: L C R, Side: L R, LFE
Частота : 48,0 КГц
Битовая глубина : 16 бит
Метод сжатия : С потерями
Размер потока : 55,3 Мбайт (6%)
Меню

Релиз:



   Похожие торренты   Торрент   Размер 
В этой теме нет новых непрочитанных сообщений. Василиса (2014) WEBRip

6263 | 244

1.37 ГБ

В этой теме нет новых непрочитанных сообщений. Василиса (2014) CAMRip

2583 | 80

1.3 ГБ

В этой теме нет новых непрочитанных сообщений. Василиса (2014) WEBRip-AVC

2158 | 125

1.56 ГБ

В этой теме нет новых непрочитанных сообщений. Василиса (2014) WEBRip

958 | 26

699.8 МБ

В этой теме нет новых непрочитанных сообщений. Василиса (2014) WEB-DL 720p | iTunes

2881 | 148

3.12 ГБ

В этой теме нет новых непрочитанных сообщений. Василиса (2014) BDRip 720p

354 | 12

3.53 ГБ

В этой теме нет новых непрочитанных сообщений. Василиса (2014) WEB-DLRip | iTunes

2349 | 114

1.37 ГБ




Вы не можете начинать темы
Вы не можете отвечать на сообщения
Вы не можете редактировать свои сообщения
Вы не можете удалять свои сообщения
Вы не можете добавлять вложения

Перейти:  
Для Мосгорсуда, Роскомнадзора и рекламодателей: mosgorsud-torrent[собачка]yandex.ru
 Вход
ppkBB3cker v.2 © 2008-2014 @ PPK
[ Time : 0.031s | 14 Queries | GZIP : Off ]

Торрент трекер RUTOR.IN, Не можете зайти на rutor.org? Какой новый адрес рутор? Какое зеркало рутор? Не работает rutor.org и зеркала? Тогда наш торрент специально для вас. Rutor.in неофициальное зеркало rutor. В случае если у Вас заблокирован rutor или вдруг Вы не можете на него зайти, то Вы без труда сможете скачать бесплатно и без рекламы последние новинки кино, игр, сериалов и прочего у нас, на Rutor.in. Не нужно использовать прокси, чтобы зайти на рутор, достаточно воспользоваться нашим ресурсом. Все новые фильмы, игры, сериалы, книги и музыка за 2013 и 2014 годы через торрент бесплатно. Скачивайте фильмы в хорошем качестве, игры для пк, xbox, playstation без регистрации. У нас вы найдете новые Зарубежные сериалы и Русские сериалы 2013, 2014, 2015 годов. Оставайтесь с нами, качайте любимые фильмы, игры, сериалы, книги и музыку.