img image001 image001 image001 image001 image001 image001 image001 image001 image001 image001 image001 image001 image001 image001 image001

Planets Sun Sun Sun
Статистика раздачи
Автор: Nickolas3434 | Размер: 1.93 ГБ | Добавлен: 27 фев 2015
Раздают: 188    Качают: 11
Скачать торрент
Скачать торрент
Описание торрента

СообщениеДобавлено: 27 фев 2015 

Информация о фильме
Название: Страсти по Владимиру
Год выхода: 1990
Жанр: сатирическая комедия
Режиссер: Марк Розовский
В ролях: Владимир Долинский, Галина Борисова, Вера Улик, Игорь Старосельцев, Александр Лукаш, Семён Фарада, Петр Козюлин, Александр Иванов, Александр Столяров, Александр Вилков, Юрий Голубцов, Александр Миронов, Андрей Молотков, Андрей Ургант, Владимир Юматов, Алексей Селезнев
О фильме:
Действие фильма происходит в кабинете руководителя одного из НИИ. Решается проблема быть или не быть концерту Высоцкого в клубе института. Начальство категорически против, но все сотрудники уже оповещены и с нетерпением ожидают выступления любимого артиста...
Доп. информация: ремукс записи потока *.ts в *.mkv программой VideoReDo.
На финальные титры наложена реклама-анонс (см. последний скриншот).

Страна: СССР
Продолжительность: 01:54:28
Файл
Качество: DVB
Формат: MKV
Видео: AVC (H264), 720x576@785x576 (4:3), анаморф, 25 fps, 2109 kbps
Звук: MP2, 256 kbps, 2 channels, 48 kHz
Семпл
General
Unique ID : 44687274885264338355895755352943262246 (0x219E74C1E2B67C23016B1A0B00C27A26)
Complete name : D:WorkVideoКонцерт в НИИСтрасти по Владимиру.mkv
Format : Matroska
Format version : Version 2
File size : 1.93 GiB
Duration : 1h 54mn
Overall bit rate : 2 413 Kbps
Writing application : Lavf52.64.2
Writing library : Lavf52.64.2
Video
ID : 1
Format : AVC
Format/Info : Advanced Video Codec
Format profile : Main@L3.0
Format settings, CABAC : Yes
Format settings, ReFrames : 4 frames
Format settings, GOP : M=4, N=24
Codec ID : V_MPEG4/ISO/AVC
Duration : 1h 54mn
Bit rate : 2 109 Kbps
Width : 720 pixels
Height : 576 pixels
Display aspect ratio : 4:3
Original display aspect ratio : 4:3
Frame rate mode : Constant
Frame rate : 25.000 fps
Standard : PAL
Color space : YUV
Chroma subsampling : 4:2:0
Bit depth : 8 bits
Scan type : MBAFF
Scan order : Top Field First
Bits/(Pixel*Frame) : 0.203
Stream size : 1.69 GiB (87%)
Default : Yes
Forced : No
Color primaries : BT.601 PAL
Transfer characteristics : BT.470 System B, BT.470 System G
Matrix coefficients : BT.601
Color range : Limited
Audio
ID : 2
Format : MPEG Audio
Format version : Version 1
Format profile : Layer 2
Codec ID : A_MPEG/L2
Codec ID/Hint : MP2
Duration : 1h 54mn
Bit rate mode : Constant
Bit rate : 256 Kbps
Channel(s) : 2 channels
Sampling rate : 48.0 KHz
Compression mode : Lossy
Stream size : 210 MiB (11%)
Language : English
Default : Yes
Forced : No



   Похожие торренты   Торрент   Размер 
В этой теме нет новых непрочитанных сообщений. VА - 25 избранных посвящений Владимиру Высоцкому (1984-2012) MP3 от DJ Allegro007

19 | 1

265.98 МБ

В этой теме нет новых непрочитанных сообщений. Футбол. Чемпионат Мира. 1990 год. СССР - Румыния (1990) SATRip от MediaClub

40 | 6

1.45 ГБ

В этой теме нет новых непрочитанных сообщений. Футбол. Чемпионат Мира. 1990 год. Камерун - СССР (1990) SATRip от MediaClub

97 | 34

1.45 ГБ

В этой теме нет новых непрочитанных сообщений. Футбол. Чемпионат Мира. 1990 год. Аргентина - СССР (1990) SATRip от MediaClub

74 | 7

1.45 ГБ

В этой теме нет новых непрочитанных сообщений. Футбол. Чемпионат Мира. 1990 год. Все матчи сборной СССР (1990) VHSRip

51 | 180

4.19 ГБ

В этой теме нет новых непрочитанных сообщений. Футбол. Чемпионат Мира. 1990 год. Все голы чемпионата (1990) VHSRip

60 | 106

1.66 ГБ

В этой теме нет новых непрочитанных сообщений. 1990: Воины Бронкса / 1990: I guerrieri del Bronx (1982) DVDRip

23 | 11

704.88 МБ




Вы не можете начинать темы
Вы не можете отвечать на сообщения
Вы не можете редактировать свои сообщения
Вы не можете удалять свои сообщения
Вы не можете добавлять вложения

Перейти:  
Для Мосгорсуда, Роскомнадзора и рекламодателей: mosgorsud-torrent[собачка]yandex.ru
 Вход
ppkBB3cker v.2 © 2008-2014 @ PPK
[ Time : 0.051s | 15 Queries | GZIP : Off ]

Торрент трекер RUTOR.IN, Не можете зайти на rutor.org? Какой новый адрес рутор? Какое зеркало рутор? Не работает rutor.org и зеркала? Тогда наш торрент специально для вас. Rutor.in неофициальное зеркало rutor. В случае если у Вас заблокирован rutor или вдруг Вы не можете на него зайти, то Вы без труда сможете скачать бесплатно и без рекламы последние новинки кино, игр, сериалов и прочего у нас, на Rutor.in. Не нужно использовать прокси, чтобы зайти на рутор, достаточно воспользоваться нашим ресурсом. Все новые фильмы, игры, сериалы, книги и музыка за 2013 и 2014 годы через торрент бесплатно. Скачивайте фильмы в хорошем качестве, игры для пк, xbox, playstation без регистрации. У нас вы найдете новые Зарубежные сериалы и Русские сериалы 2013, 2014, 2015 годов. Оставайтесь с нами, качайте любимые фильмы, игры, сериалы, книги и музыку.