img image001 image001 image001 image001 image001 image001 image001 image001 image001 image001 image001 image001 image001 image001 image001

Planets Sun Sun Sun
Статистика раздачи
Автор: Nickolas3434 | Размер: 18.79 ГБ | Добавлен: 27 фев 2015
Раздают: 132    Качают: 7
Скачать торрент
Скачать торрент
Описание торрента

СообщениеДобавлено: 27 фев 2015 

Информация о фильме
Оригинальное название: Гитлер Капут!
Год выхода: 2008
Жанр: Комедия, пародия, приключения, военный
Режиссёр: Марюс Вайсберг
В ролях: Павел Деревянко, Анна Семенович, Юрий Гальцев, Юрий Стоянов, Алексей Огурцов, Эвелина Блёданс, Михаил Крылов, Илья Олейников, Алексей Булдаков, Тимати, Анфиса Чехова, Ксения Собчак, Михаил Галустян, Игорь Гаспарян, Александр Безруков, Евгений Митрофанов, Юрий Михайлик, Игорь Ярошевич, Владимир Щербаков, Максим Браматкин, Игорь Головин
О фильме: Русский супер-агент - строго засекреченный шпион Шура Осечкин, он же штандартенфюрер СС Олаф Шуренберг, самоотверженно и нахально ведет подрывную деятельность в ставке Гитлера. Войне скоро конец, и это уже понятно всем, кроме фанатичного фюрера и подозрительного Мюллера. Простые труженики Рейха давно махнули на все рукой, пустились в отрыв и бесшабашно тусуются по клубам. Шуренберг скучает по дому и выращивает помидоры в тайной теплице возле своего дома на 007-Штрассе. Очередное задание Центра сваливается на него прямо с неба - вместе с новой помощницей, очаровательной и сексапильной радисткой Зиной, мечтой каждого мужчины. С такой боевой подругой недолго и про войну забыть! Но долг превыше всего: прежде чем вернуться на Родину и зажить счастливо вместе, супер-агентам Шуренбергу и Зине предстоит провернуть одну, последнюю и очень важную операцию...

Выпущено: Россия, Sveshiy Veter
Продолжительность: 01:38:40
Перевод: Не требуется
Файл
Качество: Blu-ray Remux (1080p)
Видео: MPEG-4 AVC, 24.5 Мбит/с, 1920x1080 (16;9), 23.976 кадр/с
Аудио #1: Русский, Dolby AC3, 48000 Гц, 448 Кбит/с, 6 каналов (5.1) - Оригинал
Аудио #2: Русский, DTS-HD MA, 48000 Гц, 2698 Кбит/с, 8 каналов (7.1) - Оригинал
Аудио #3: Русский, Dolby AC3, 48000 Гц, 192 Кбит/с, 2 канала (Стерео) - Оригинал
Субтитры: Русские, украинские, английские (полные, SRT)
Навигация по главам: Есть (Сохранены оригинальные чаптеры как на Blu-ray)
General
Unique ID : 195690465224868237408141796616963562304 (0x93389CD8A585781E91958D6A9DF71B40)
Complete name : Gitler.Kaput.2008.BDRemux.1080p.mkv
Format : Matroska
File size : 18.8 GiB
Duration : 1h 38mn
Overall bit rate : 27.3 Mbps
Movie name : Гитлер Капут! (2008) Blu-ray Remux (1080p)
Encoded date : UTC 2015-02-26 09:11:37
Writing application : mkvmerge v6.1.0 ('Old Devil') built on Mar 4 2013 09:10:42
Writing library : libebml v1.3.0 + libmatroska v1.4.0
Video
ID : 1
Format : AVC
Format/Info : Advanced Video Codec
Format profile : High@L4.1
Format settings, CABAC : Yes
Format settings, ReFrames : 4 frames
Codec ID : V_MPEG4/ISO/AVC
Duration : 1h 38mn
Bit rate mode : Variable
Bit rate : 24.5 Mbps
Maximum bit rate : 38.0 Mbps
Width : 1 920 pixels
Height : 1 080 pixels
Display aspect ratio : 16:9
Frame rate : 23.976 fps
Standard : NTSC
Color space : YUV
Chroma subsampling : 4:2:0
Bit depth : 8 bits
Scan type : Progressive
Bits/(Pixel*Frame) : 0.493
Stream size : 16.9 GiB (90%)
Title : Гитлер Капут! (2008)
Language : Russian
Color primaries : BT.709-5, BT.1361, IEC 61966-2-4, SMPTE RP177
Transfer characteristics : BT.709-5, BT.1361
Matrix coefficients : BT.709-5, BT.1361, IEC 61966-2-4 709, SMPTE RP177
Audio #1
ID : 2
Format : AC-3
Format/Info : Audio Coding 3
Mode extension : CM (complete main)
Codec ID : A_AC3
Duration : 1h 38mn
Bit rate mode : Constant
Bit rate : 448 Kbps
Channel(s) : 6 channels
Channel positions : Front: L C R, Side: L R, LFE
Sampling rate : 48.0 KHz
Bit depth : 16 bits
Compression mode : Lossy
Stream size : 316 MiB (2%)
Title : DD 5.1 [Original]
Language : Russian
Audio #2
ID : 3
Format : DTS
Format/Info : Digital Theater Systems
Format profile : MA / Core
Codec ID : A_DTS
Duration : 1h 38mn
Bit rate mode : Variable
Bit rate : 1 573 Kbps / 1 510 Kbps
Channel(s) : 8 channels / 6 channels
Channel positions : Front: L C R, Side: L R, Back: L R, LFE / Front: L C R, Side: L R, LFE
Sampling rate : 48.0 KHz
Bit depth : 16 bits
Compression mode : Lossless / Lossy
Title : DTS-HD MA 7.1 [Original]
Language : Russian
Audio #3
ID : 4
Format : AC-3
Format/Info : Audio Coding 3
Mode extension : CM (complete main)
Codec ID : A_AC3
Duration : 1h 38mn
Bit rate mode : Constant
Bit rate : 192 Kbps
Channel(s) : 2 channels
Channel positions : Front: L R
Sampling rate : 48.0 KHz
Bit depth : 16 bits
Compression mode : Lossy
Stream size : 135 MiB (1%)
Title : DD 2.0 [Original]
Language : Russian
Text #1
ID : 5
Format : UTF-8
Codec ID : S_TEXT/UTF8
Codec ID/Info : UTF-8 Plain Text
Title : Full
Language : Russian
Text #2
ID : 6
Format : UTF-8
Codec ID : S_TEXT/UTF8
Codec ID/Info : UTF-8 Plain Text
Title : Full
Language : Ukrainian
Text #3
ID : 7
Format : UTF-8
Codec ID : S_TEXT/UTF8
Codec ID/Info : UTF-8 Plain Text
Title : Full
Language : English
Menu
00:00:00.000 : en:Chapter 01
00:03:54.692 : en:Chapter 02
00:08:53.282 : en:Chapter 03
00:19:17.364 : en:Chapter 04
00:28:46.015 : en:Chapter 05
00:40:07.154 : en:Chapter 06
00:45:48.704 : en:Chapter 07
00:51:14.780 : en:Chapter 08
00:56:36.142 : en:Chapter 09
01:05:46.359 : en:Chapter 10
01:19:09.619 : en:Chapter 11
01:31:03.416 : en:Chapter 12




Автор ремукса - ivandubskoj



   Похожие торренты   Торрент   Размер 
В этой теме нет новых непрочитанных сообщений. Гитлер Капут! (2008) BDRip от ivandubskoj | Лицензия

241 | 27

746.19 МБ

В этой теме нет новых непрочитанных сообщений. Гитлер капут! (2008) BDRip 1080p

52 | 1

7.76 ГБ

В этой теме нет новых непрочитанных сообщений. Гитлер капут! (2008) BDRip 1080p

143 | 9

4.37 ГБ

В этой теме нет новых непрочитанных сообщений. Гитлер Капут (2008) Blu-Ray

3 | 3

21.33 ГБ

В этой теме нет новых непрочитанных сообщений. Гитлер Капут! (2008) BDRip-AVC от potroks

40 | 4

2.18 ГБ

В этой теме нет новых непрочитанных сообщений. Гитлер капут! (2008) BDRip от HQ-ViDEO

141 | 5

1.46 ГБ

В этой теме нет новых непрочитанных сообщений. Гитлер капут! (2008) BDRip от HELLYWOOD

16 | 5

1.46 ГБ




Вы не можете начинать темы
Вы не можете отвечать на сообщения
Вы не можете редактировать свои сообщения
Вы не можете удалять свои сообщения
Вы не можете добавлять вложения

Перейти:  
Для Мосгорсуда, Роскомнадзора и рекламодателей: mosgorsud-torrent[собачка]yandex.ru
 Вход
ppkBB3cker v.2 © 2008-2014 @ PPK
[ Time : 0.043s | 15 Queries | GZIP : Off ]

Торрент трекер RUTOR.IN, Не можете зайти на rutor.org? Какой новый адрес рутор? Какое зеркало рутор? Не работает rutor.org и зеркала? Тогда наш торрент специально для вас. Rutor.in неофициальное зеркало rutor. В случае если у Вас заблокирован rutor или вдруг Вы не можете на него зайти, то Вы без труда сможете скачать бесплатно и без рекламы последние новинки кино, игр, сериалов и прочего у нас, на Rutor.in. Не нужно использовать прокси, чтобы зайти на рутор, достаточно воспользоваться нашим ресурсом. Все новые фильмы, игры, сериалы, книги и музыка за 2013 и 2014 годы через торрент бесплатно. Скачивайте фильмы в хорошем качестве, игры для пк, xbox, playstation без регистрации. У нас вы найдете новые Зарубежные сериалы и Русские сериалы 2013, 2014, 2015 годов. Оставайтесь с нами, качайте любимые фильмы, игры, сериалы, книги и музыку.