img image001 image001 image001 image001 image001 image001 image001 image001 image001 image001 image001 image001 image001 image001 image001

Planets Sun Sun Sun
Статистика раздачи
Автор: Nickolas3434 | Размер: 746.19 МБ | Добавлен: 27 фев 2015
Раздают: 241    Качают: 27
Скачать торрент
Скачать торрент
Описание торрента

СообщениеДобавлено: 27 фев 2015 

Информация о фильме
Оригинальное название: Гитлер Капут!
Год выхода: 2008
Жанр: Комедия, пародия, приключения, военный
Режиссёр: Марюс Вайсберг
В ролях: Павел Деревянко, Анна Семенович, Юрий Гальцев, Юрий Стоянов, Алексей Огурцов, Эвелина Блёданс, Михаил Крылов, Илья Олейников, Алексей Булдаков, Тимати, Анфиса Чехова, Ксения Собчак, Михаил Галустян, Игорь Гаспарян, Александр Безруков, Евгений Митрофанов, Юрий Михайлик, Игорь Ярошевич, Владимир Щербаков, Максим Браматкин, Игорь Головин
О фильме: Русский супер-агент - строго засекреченный шпион Шура Осечкин, он же штандартенфюрер СС Олаф Шуренберг, самоотверженно и нахально ведет подрывную деятельность в ставке Гитлера. Войне скоро конец, и это уже понятно всем, кроме фанатичного фюрера и подозрительного Мюллера. Простые труженики Рейха давно махнули на все рукой, пустились в отрыв и бесшабашно тусуются по клубам. Шуренберг скучает по дому и выращивает помидоры в тайной теплице возле своего дома на 007-Штрассе. Очередное задание Центра сваливается на него прямо с неба - вместе с новой помощницей, очаровательной и сексапильной радисткой Зиной, мечтой каждого мужчины. С такой боевой подругой недолго и про войну забыть! Но долг превыше всего: прежде чем вернуться на Родину и зажить счастливо вместе, супер-агентам Шуренбергу и Зине предстоит провернуть одну, последнюю и очень важную операцию...

Выпущено: Россия, Sveshiy Veter
Продолжительность: 01:38:40
Перевод: Не требуется
Файл
Качество: BDRip [Исходник: Blu-ray Remux (1080p)]
Видео: XviD, 920 Кбит/с, 656x368 (16:9), 23.976 кадр/с
Аудио: Русский, MP3, 48000 Гц, 128 Кбит/с, 2 канала (Стерео) - Оригинал
Субтитры: Нет

General
Complete name : Gitler.Kaput.2008.BDRip.745MB.avi
Format : AVI
Format/Info : Audio Video Interleave
File size : 746 MiB
Duration : 1h 38mn
Overall bit rate : 1 057 Kbps
Writing application : VirtualDubMod 1.5.10.3 (build 2550/release)
Writing library : VirtualDubMod build 2550/release
Copyright : rip by ivandubskoj
Video
ID : 0
Format : MPEG-4 Visual
Format profile : Advanced Simple@L5
Format settings, BVOP : 2
Format settings, QPel : No
Format settings, GMC : No warppoints
Format settings, Matrix : Custom
Codec ID : XVID
Codec ID/Hint : XviD
Duration : 1h 38mn
Bit rate : 920 Kbps
Width : 656 pixels
Height : 368 pixels
Display aspect ratio : 16:9
Frame rate : 23.976 fps
Color space : YUV
Chroma subsampling : 4:2:0
Bit depth : 8 bits
Scan type : Progressive
Compression mode : Lossy
Bits/(Pixel*Frame) : 0.159
Stream size : 649 MiB (87%)
Writing library : XviD 73
Audio
ID : 1
Format : MPEG Audio
Format version : Version 1
Format profile : Layer 3
Codec ID : 55
Codec ID/Hint : MP3
Duration : 1h 38mn
Bit rate mode : Constant
Bit rate : 128 Kbps
Channel(s) : 2 channels
Sampling rate : 48.0 KHz
Compression mode : Lossy
Stream size : 90.3 MiB (12%)
Alignment : Aligned on interleaves
Interleave, duration : 42 ms (1.00 video frame)
Interleave, preload duration : 504 ms
Writing library : LAME3.99r
Encoding settings : -m s -V 4 -q 0 -lowpass 17 -b 128


Автор рипа - ivandubskoj



   Похожие торренты   Торрент   Размер 
В этой теме нет новых непрочитанных сообщений. Гитлер Капут! (2008) Blu-ray Remux 1080p от ivandubskoj | Лицензия

132 | 7

18.79 ГБ

В этой теме нет новых непрочитанных сообщений. Гитлер Капут! (2008) BDRip-AVC от potroks

40 | 4

2.18 ГБ

В этой теме нет новых непрочитанных сообщений. Гитлер капут! (2008) BDRip от HELLYWOOD

16 | 5

1.46 ГБ

В этой теме нет новых непрочитанных сообщений. Гитлер капут! (2008) BDRip 1080p

143 | 9

4.37 ГБ

В этой теме нет новых непрочитанных сообщений. Гитлер капут! (2008) BDRip 1080p

81 | 5

7.76 ГБ

В этой теме нет новых непрочитанных сообщений. Гитлер капут! (2008) BDRip от HQ-ViDEO

141 | 5

1.46 ГБ

В этой теме нет новых непрочитанных сообщений. Гитлер капут (2008) BDRip от HQCLUB

249 | 17

1.45 ГБ




Вы не можете начинать темы
Вы не можете отвечать на сообщения
Вы не можете редактировать свои сообщения
Вы не можете удалять свои сообщения
Вы не можете добавлять вложения

Перейти:  
Для Мосгорсуда, Роскомнадзора и рекламодателей: mosgorsud-torrent[собачка]yandex.ru
 Вход
ppkBB3cker v.2 © 2008-2014 @ PPK
[ Time : 0.028s | 16 Queries | GZIP : On ]

Торрент трекер RUTOR.IN, Не можете зайти на rutor.org? Какой новый адрес рутор? Какое зеркало рутор? Не работает rutor.org и зеркала? Тогда наш торрент специально для вас. Rutor.in неофициальное зеркало rutor. В случае если у Вас заблокирован rutor или вдруг Вы не можете на него зайти, то Вы без труда сможете скачать бесплатно и без рекламы последние новинки кино, игр, сериалов и прочего у нас, на Rutor.in. Не нужно использовать прокси, чтобы зайти на рутор, достаточно воспользоваться нашим ресурсом. Все новые фильмы, игры, сериалы, книги и музыка за 2013 и 2014 годы через торрент бесплатно. Скачивайте фильмы в хорошем качестве, игры для пк, xbox, playstation без регистрации. У нас вы найдете новые Зарубежные сериалы и Русские сериалы 2013, 2014, 2015 годов. Оставайтесь с нами, качайте любимые фильмы, игры, сериалы, книги и музыку.