img image001 image001 image001 image001 image001 image001 image001 image001 image001 image001 image001 image001 image001 image001 image001

Planets Sun Sun Sun
Статистика раздачи
Автор: Nickolas3434 | Размер: 2.91 ГБ | Добавлен: 27 фев 2015
Раздают: 472    Качают: 35
Скачать торрент
Скачать торрент
Описание торрента

СообщениеДобавлено: 27 фев 2015 

Информация о фильме
Название: Ёлки 1914
Год выхода: 2014
Жанр: семейный, комедия, драма
Режиссер: Ольга Харина, Тимур Бекмамбетов, Заур Засеев
В ролях: Константин Хабенский, Иван Ургант, Сергей Светлаков, Евгения Брик, Нина Дворжецкая, Ирина Архипова, Альберт Филозов, Елена Плаксина, Антон Богданов, Ян Цапник
О фильме: 100 лет назад, Российская империя… Канун Рождества. Декабрьские пробки, праздничные гулянья, роскошные балы и скромные праздники, титулованные дворяне и обычные крестьяне, царская семья и солдаты первой мировой войны, прогрессивные поэты и первые фигуристы — все было по-другому, за исключением … праздника. Люди готовились, жили, верили, мечтали и ждали настоящего чуда — Рождества!

Выпущено: Базелевс Продакшн
Продолжительность: 01:47:37
Перевод: Оригинал (лицензия)
Файл
Кодек: x264
Качество: BDRip (источник: Blu-ray Disc)
Видео: 1280x536 (2,40:1), 24 fps, 3420 kbps
Аудио: AC-3, 6 ch, 448 kbps
Скачать: сэмпл
Скриншоты

Общее
Уникальный идентификатор : 251490887644092665948564551246152362197 (0xBD33621482113AFEB81473BA6C5A68D5)
Полное имя : Yolki.1914.2014.BDRip.720p.Rus.mkv
Формат : Matroska
Версия формата : Version 2
Размер файла : 2,91 Гбайт
Продолжительность : 1 ч. 47 м.
Общий поток : 3872 Кбит/сек
Название фильма : Ёлки 1914 (2014)
Дата кодирования : UTC 2015-02-26 17:02:29
Программа кодирования : mkvmerge v5.8.0 ('No Sleep / Pillow') built on Sep 2 2012 15:37:04
Библиотека кодирования : libebml v1.2.3 + libmatroska v1.3.0
Видео
Идентификатор : 1
Формат : AVC
Формат/Информация : Advanced Video Codec
Профиль формата : High@L4.1
Параметр CABAC формата : Да
Параметр ReFrames формата : 8 кадров
Идентификатор кодека : V_MPEG4/ISO/AVC
Продолжительность : 1 ч. 47 м.
Битрейт : 3424 Кбит/сек
Ширина : 1280 пикселей
Высота : 536 пикселей
Соотношение сторон : 2,40:1
Режим частоты кадров : Постоянный
Частота кадров : 24,000 кадра/сек
Цветовое пространство : YUV
Субдискретизация насыщенности : 4:2:0
Битовая глубина : 8 бит
Тип развёртки : Прогрессивная
Бит/(Пиксели*Кадры) : 0.208
Размер потока : 2,52 Гбайт (86%)
Заголовок : Release by AlexKa
Библиотека кодирования : x264 core 144 r2525 40bb568
Настройки программы : cabac=1 / ref=8 / deblock=1:-3:-3 / analyse=0x3:0x133 / me=umh / subme=11 / psy=1 / psy_rd=1.00:0.00 / mixed_ref=1 / me_range=32 / chroma_me=1 / trellis=2 / 8x8dct=1 / cqm=0 / deadzone=21,11 / fast_pskip=0 / chroma_qp_offset=-2 / threads=12 / lookahead_threads=1 / sliced_threads=0 / nr=0 / decimate=0 / interlaced=0 / bluray_compat=0 / constrained_intra=0 / bframes=6 / b_pyramid=2 / b_adapt=2 / b_bias=0 / direct=3 / weightb=1 / open_gop=0 / weightp=2 / keyint=240 / keyint_min=24 / scenecut=40 / intra_refresh=0 / rc=2pass / mbtree=0 / bitrate=3424 / ratetol=1.0 / qcomp=0.60 / qpmin=0 / qpmax=69 / qpstep=4 / cplxblur=20.0 / qblur=0.5 / ip_ratio=1.40 / pb_ratio=1.30 / aq=1:1.00
Язык : Russian
Аудио
Идентификатор : 2
Формат : AC-3
Формат/Информация : Audio Coding 3
Расширение режима : CM (complete main)
Параметр Endianness формата : Big
Идентификатор кодека : A_AC3
Продолжительность : 1 ч. 47 м.
Вид битрейта : Постоянный
Битрейт : 448 Кбит/сек
Каналы : 6 каналов
Расположение каналов : Front: L C R, Side: L R, LFE
Частота : 48,0 КГц
Битовая глубина : 16 бит
Метод сжатия : С потерями
Размер потока : 345 Мбайт (12%)
Заголовок : Rus
Язык : Russian
Меню
00:00:00.000 : :Chapter 01
00:07:19.250 : :Chapter 02
00:15:27.458 : :Chapter 03
00:21:50.333 : :Chapter 04
00:28:18.458 : :Chapter 05
00:36:02.041 : :Chapter 06
00:42:31.041 : :Chapter 07
00:50:14.833 : :Chapter 08
00:58:53.583 : :Chapter 09
01:08:15.958 : :Chapter 10
01:17:28.666 : :Chapter 11
01:24:48.625 : :Chapter 12
01:31:05.208 : :Chapter 13
01:37:07.916 : :Chapter 14
01:41:24.916 : :Chapter 15
01:47:37.416 : :Chapter 16
x264 [info]: frame I:1568 Avg QP:14.30 size: 85793
x264 [info]: frame P:36722 Avg QP:15.96 size: 34196
x264 [info]: frame B:116689 Avg QP:17.83 size: 11360
x264 [info]: consecutive B-frames: 2.6% 3.2% 11.5% 28.2% 17.9% 33.2% 3.4%



   Похожие торренты   Торрент   Размер 
В этой теме нет новых непрочитанных сообщений. Ёлки 1914 (2014) BDRip 720p от UNIONGANG | Лицензия

3100 | 44

3.56 ГБ

В этой теме нет новых непрочитанных сообщений. Ёлки 1914 (2014) BDRip 720p от Leonardo and Scarabey | Лицензия

740 | 44

2.77 ГБ

В этой теме нет новых непрочитанных сообщений. Ёлки 1914 (2014) BDRip от HQCLUB | Лицензия

592 | 17

1.99 ГБ

В этой теме нет новых непрочитанных сообщений. Ёлки 1914 (2014) BDRip-AVC от HELLYWOOD | Лицензия

365 | 27

1.46 ГБ

В этой теме нет новых непрочитанных сообщений. Ёлки 1914 (2014) BDRip 1080p | Лицензия

1929 | 82

6.7 ГБ

В этой теме нет новых непрочитанных сообщений. Ёлки 1914 (2014) HDRip | КПК

265 | 19

668.93 МБ

В этой теме нет новых непрочитанных сообщений. Ёлки 1914 (2014) HDRip-AVC

899 | 38

2.05 ГБ




Вы не можете начинать темы
Вы не можете отвечать на сообщения
Вы не можете редактировать свои сообщения
Вы не можете удалять свои сообщения
Вы не можете добавлять вложения

Перейти:  
Для Мосгорсуда, Роскомнадзора и рекламодателей: mosgorsud-torrent[собачка]yandex.ru
 Вход
ppkBB3cker v.2 © 2008-2014 @ PPK
[ Time : 0.039s | 15 Queries | GZIP : Off ]

Торрент трекер RUTOR.IN, Не можете зайти на rutor.org? Какой новый адрес рутор? Какое зеркало рутор? Не работает rutor.org и зеркала? Тогда наш торрент специально для вас. Rutor.in неофициальное зеркало rutor. В случае если у Вас заблокирован rutor или вдруг Вы не можете на него зайти, то Вы без труда сможете скачать бесплатно и без рекламы последние новинки кино, игр, сериалов и прочего у нас, на Rutor.in. Не нужно использовать прокси, чтобы зайти на рутор, достаточно воспользоваться нашим ресурсом. Все новые фильмы, игры, сериалы, книги и музыка за 2013 и 2014 годы через торрент бесплатно. Скачивайте фильмы в хорошем качестве, игры для пк, xbox, playstation без регистрации. У нас вы найдете новые Зарубежные сериалы и Русские сериалы 2013, 2014, 2015 годов. Оставайтесь с нами, качайте любимые фильмы, игры, сериалы, книги и музыку.