img image001 image001 image001 image001 image001 image001 image001 image001 image001 image001 image001 image001 image001 image001 image001

Planets Sun Sun Sun
Статистика раздачи
Автор: Nickolas3434 | Размер: 745.4 МБ | Добавлен: 03 мар 2015
Раздают: 77    Качают: 28
Скачать торрент
Скачать торрент
Описание торрента

СообщениеДобавлено: 03 мар 2015 

Страна: СССР
Производство: Мосфильм, ЦОКС

Жанр: военный, биография, история
Год выпуска: 1942
Продолжительность: 01:07:46

Перевод: Не требуется
Cубтитры: нет
Оригинальная аудиодорожка: русский

Режиссер: Александр Файнциммер

В ролях:
Николай Мордвинов, Василий Ванин, Николай Крючков, Вера Марецкая, Михаил Астангов, Константин Сорокин, Иван Клюквин, Елизавета Кузюрина, М. Гродский, Оскар Строк...

Описание:
Фильм о легендарном герое Гражданской войны Григории Ивановиче Котовском, прошедшем большой революционный путь и ставшим признанным военным командиром кавалерийских войск: комдивом, комбригом, комполка. Шесть раз он бежал из тюрьмы, был приговорен к смертной казни и вновь бежал, чтобы стать одним из самых пламенных воинов революции. Его знаменитая конная бригада билась с врагом под Киевом и Белой Церковью, у Николаева и Одессы, и нигде не знала поражений...





Источник: DVD5 R5
Качество видео: DVDRip
Формат видео: AVI

Видео: 688x512 (4:3), 25 fps, XviD ~ 1336 kbps avg, 0.152 bit/pixel
Аудио: 48 kHz, Dolby Digital AC3 2.0, 192 kbps

Раздача от:
Общее
Полное имя : Kotovskiy.1942.DVDRip_[New-team]_by_AVP_Studio.avi
Формат : AVI
Формат/Информация : Audio Video Interleave
Размер файла : 745 Мбайт
Продолжительность : 1 ч. 7 м.
Общий поток : 1538 Кбит/сек
Программа кодирования : VirtualDubModRus 1.5.10.2 (build 2542/release)
Библиотека кодирования : VirtualDubMod build 2542/release

Видео
Идентификатор : 0
Формат : MPEG-4 Visual
Профиль формата : Advanced Simple@L5
Параметр BVOP формата : 1
Параметр QPel формата : Нет
Параметр GMC формата : Без точки перехода
Параметр матрицы формата : Выборочная
Идентификатор кодека : XVID
Идентификатор кодека/Подсказка : XviD
Продолжительность : 1 ч. 7 м.
Битрейт : 1336 Кбит/сек
Ширина : 688 пикселей
Высота : 512 пикселей
Соотношение сторон : 4:3
Частота кадров : 25,000 кадров/сек
Цветовое пространство : YUV
Субдискретизация насыщенности : 4:2:0
Битовая глубина : 8 бит
Тип развёртки : Прогрессивная
Метод сжатия : С потерями
Бит/(Пиксели*Кадры) : 0.152
Размер потока : 648 Мбайт (87%)
Библиотека кодирования : XviD 73

Аудио
Идентификатор : 1
Формат : AC-3
Формат/Информация : Audio Coding 3
Расширение режима : CM (complete main)
Параметр Endianness формата : Big
Идентификатор кодека : 2000
Продолжительность : 1 ч. 7 м.
Вид битрейта : Постоянный
Битрейт : 192 Кбит/сек
Каналы : 2 канала
Расположение каналов : Front: L R
Частота : 48,0 КГц
Битовая глубина : 16 бит
Метод сжатия : С потерями
Размер потока : 93,1 Мбайт (12%)
Выравнивание : Разделение по промежуткам
Продолжительность промежутка : 40 мс. (1,00 видеокадр)
Время предзагрузки промежутка : 500 мс





   Похожие торренты   Торрент   Размер 
В этой теме нет новых непрочитанных сообщений. Котовский (1942) DVDRip-AVC от New-Team

19 | 6

745.94 МБ

В этой теме нет новых непрочитанных сообщений. Котовский (1942) DVDRip-AVC

34 | 5

1.39 ГБ

В этой теме нет новых непрочитанных сообщений. Непобедимые (1942) DVDRip-AVC от New-Team

29 | 12

1.46 ГБ

В этой теме нет новых непрочитанных сообщений. Непобедимые (1942) DVDRip от New-Team

29 | 11

1.46 ГБ

В этой теме нет новых непрочитанных сообщений. Бой под Соколом (1942) DVDRip-AVC от New-Team

16 | 6

744.52 МБ

В этой теме нет новых непрочитанных сообщений. Бой под Соколом (1942) DVDRip от New-Team

10 | 6

744.55 МБ

В этой теме нет новых непрочитанных сообщений. Непобедимые (1942) DVDRip от New-Team

23 | 9

744.59 МБ




Вы не можете начинать темы
Вы не можете отвечать на сообщения
Вы не можете редактировать свои сообщения
Вы не можете удалять свои сообщения
Вы не можете добавлять вложения

Перейти:  
Для Мосгорсуда, Роскомнадзора и рекламодателей: mosgorsud-torrent[собачка]yandex.ru
 Вход
ppkBB3cker v.2 © 2008-2014 @ PPK
[ Time : 0.020s | 15 Queries | GZIP : Off ]

Торрент трекер RUTOR.IN, Не можете зайти на rutor.org? Какой новый адрес рутор? Какое зеркало рутор? Не работает rutor.org и зеркала? Тогда наш торрент специально для вас. Rutor.in неофициальное зеркало rutor. В случае если у Вас заблокирован rutor или вдруг Вы не можете на него зайти, то Вы без труда сможете скачать бесплатно и без рекламы последние новинки кино, игр, сериалов и прочего у нас, на Rutor.in. Не нужно использовать прокси, чтобы зайти на рутор, достаточно воспользоваться нашим ресурсом. Все новые фильмы, игры, сериалы, книги и музыка за 2013 и 2014 годы через торрент бесплатно. Скачивайте фильмы в хорошем качестве, игры для пк, xbox, playstation без регистрации. У нас вы найдете новые Зарубежные сериалы и Русские сериалы 2013, 2014, 2015 годов. Оставайтесь с нами, качайте любимые фильмы, игры, сериалы, книги и музыку.