img image001 image001 image001 image001 image001 image001 image001 image001 image001 image001 image001 image001 image001 image001 image001

Planets Sun Sun Sun
Статистика раздачи
Автор: Nickolas3434 | Размер: 1.63 ГБ | Добавлен: 03 мар 2015
Раздают: 19    Качают: 7
Скачать торрент
Скачать торрент
Описание торрента

СообщениеДобавлено: 03 мар 2015 

Информация о фильме
Название: Странник
Год выхода: 1987
Жанр: исторический фильм, приключения, экранизация
Режиссер: Михаил Ведышев
В ролях: Александр Трофимов, Геннадий Горячев, Алексей Булдаков, Виктор Давыдов, Станислав Лесной, Вадим Гемс, Андрей Бубашкин, Сергей Максачев, Александр Чижов, Олег Жданов, Илзе Лиепа, Сергей Плотников, Андрей Болтнев, Александр Краснов, Анатолий Гуляев, Владимир Цветков

О фильме:
Героико-приключенческий фильм по мотивам повести Е. Федоровского «Свежий ветер океана». 1820 год. Впервые в истории мореплавания два российских корабля "Восток" и "Мирный" достигли берегов Антарктиды. Завоевания экспедиции Беллинсгаузена и Лазарева тогда были поставлены под сомнение морскими державами. И теперь в 40-е годы ХХ века молодой ленинградский ученый Головин, долгие годы отдавший поискам карт экспедиции, обнаруживает на оккупированной немцами территории документы военно-морского архива...

Доп. информация: ремукс записи потока *.ts в *.mkv программой VideoReDo.
На видео местами баннеры (см. последний скриншот).

Страна: СССР
Студия: киностудия им. М. Горького (Ялтинский филиал)
Продолжительность: 01:36:44

Файл
Качество: DVB
Формат: MKV
Видео: AVC (H264), 720x576@785x576 (4:3), анаморф, 25 fps, 2108 kbps
Звук: MP2, 256 kbps, 2 channels, 48 kHz

Семпл

General
Unique ID : 55601467205308235163846982095595272108 (0x29D473FC04E5F21BFB3916A9A89E77AC)
Complete name : D:WorkVideoСтранникСтранник.mkv
Format : Matroska
Format version : Version 2
File size : 1.63 GiB
Duration : 1h 36mn
Overall bit rate : 2 412 Kbps
Writing application : Lavf52.64.2
Writing library : Lavf52.64.2

Video
ID : 1
Format : AVC
Format/Info : Advanced Video Codec
Format profile : Main@L3.0
Format settings, CABAC : Yes
Format settings, ReFrames : 4 frames
Format settings, GOP : M=4, N=24
Codec ID : V_MPEG4/ISO/AVC
Duration : 1h 36mn
Bit rate : 2 108 Kbps
Width : 720 pixels
Height : 576 pixels
Display aspect ratio : 4:3
Original display aspect ratio : 4:3
Frame rate mode : Constant
Frame rate : 25.000 fps
Standard : PAL
Color space : YUV
Chroma subsampling : 4:2:0
Bit depth : 8 bits
Scan type : MBAFF
Scan order : Top Field First
Bits/(Pixel*Frame) : 0.203
Stream size : 1.42 GiB (87%)
Default : Yes
Forced : No
Color primaries : BT.601 PAL
Transfer characteristics : BT.470 System B, BT.470 System G
Matrix coefficients : BT.601
Color range : Limited

Audio
ID : 2
Format : MPEG Audio
Format version : Version 1
Format profile : Layer 2
Codec ID : A_MPEG/L2
Codec ID/Hint : MP2
Duration : 1h 36mn
Bit rate mode : Constant
Bit rate : 256 Kbps
Channel(s) : 2 channels
Sampling rate : 48.0 KHz
Compression mode : Lossy
Stream size : 177 MiB (11%)
Language : English
Default : Yes
Forced : No



   Похожие торренты   Торрент   Размер 
В этой теме нет новых непрочитанных сообщений. Странник (2008) DVDRip

11 | 3

1.36 ГБ

В этой теме нет новых непрочитанных сообщений. Небесный странник / Windchaser (2008) PC

0 | 2

4.22 ГБ

В этой теме нет новых непрочитанных сообщений. Лесков Н. С. - Очарованный странник (2007) MP3

10 | 3

338.24 МБ

В этой теме нет новых непрочитанных сообщений. Николай Басков - Странник (2015) MP3

519 | 202

156.51 МБ

В этой теме нет новых непрочитанных сообщений. Небесный странник / Windchaser (2008) PC

0 | 1

2.06 ГБ

В этой теме нет новых непрочитанных сообщений. Очарованный странник (1990) DVDRip

1055 | 28

1.37 ГБ

В этой теме нет новых непрочитанных сообщений. Странник / El caminante (1979) DVDRip | L1, Sub

156 | 10

1.52 ГБ




Вы не можете начинать темы
Вы не можете отвечать на сообщения
Вы не можете редактировать свои сообщения
Вы не можете удалять свои сообщения
Вы не можете добавлять вложения

Перейти:  
Для Мосгорсуда, Роскомнадзора и рекламодателей: mosgorsud-torrent[собачка]yandex.ru
 Вход
ppkBB3cker v.2 © 2008-2014 @ PPK
[ Time : 0.022s | 16 Queries | GZIP : Off ]

Торрент трекер RUTOR.IN, Не можете зайти на rutor.org? Какой новый адрес рутор? Какое зеркало рутор? Не работает rutor.org и зеркала? Тогда наш торрент специально для вас. Rutor.in неофициальное зеркало rutor. В случае если у Вас заблокирован rutor или вдруг Вы не можете на него зайти, то Вы без труда сможете скачать бесплатно и без рекламы последние новинки кино, игр, сериалов и прочего у нас, на Rutor.in. Не нужно использовать прокси, чтобы зайти на рутор, достаточно воспользоваться нашим ресурсом. Все новые фильмы, игры, сериалы, книги и музыка за 2013 и 2014 годы через торрент бесплатно. Скачивайте фильмы в хорошем качестве, игры для пк, xbox, playstation без регистрации. У нас вы найдете новые Зарубежные сериалы и Русские сериалы 2013, 2014, 2015 годов. Оставайтесь с нами, качайте любимые фильмы, игры, сериалы, книги и музыку.
cron