img image001 image001 image001 image001 image001 image001 image001 image001 image001 image001 image001 image001 image001 image001 image001

Planets Sun Sun Sun
Статистика раздачи
Автор: Nickolas3434 | Размер: 1.44 ГБ | Добавлен: 03 мар 2015
Раздают: 361    Качают: 23
Скачать торрент
Скачать торрент
Описание торрента

СообщениеДобавлено: 03 мар 2015 

Информация о фильме

Название: Мимино

Год выхода: 1977
Жанр: Комедия, Драма
Продолжительность: 01:31:18

Режиссер: Георгий Данелия
Сценарий: Георгий Данелия, Реваз Габриадзе, Виктория Токарева
Композитор: Гия Канчели

В ролях: Вахтанг Кикабидзе, Фрунзик Мкртчян, Елена Проклова, Евгений Леонов, Константин Даушвили, Руслан Микаберидзе, Закро Сахвадзе, Марина Дюжева, Савелий Крамаров, Арчил Гомиашвили, Ипполит Хвичия, Валентина Титова, Владимир Басов

О фильме: «Мимино» - по-грузински «сокол». Так называют друзья героя фильма, летчика Валико Мизандари, по воле режиссера то и дело попадающего в смешные, грустные, а порой драматические ситуации. Работая в родном горном селении, Мимино перевозит на вертолете почту, фрукты, овец. Но он давно мечтает о настоящей, большой авиации. Наконец ему удается воплотить свою мечту в жизнь...



Страна: СССР
Студия: Мосфильм

Перевод: Не требуется (оригинальный)

Файл
Формат: avi
Качество: DVDRip (DVD9 КП реставрация)
Видео: XviD, 704x528, 25fps, 1808kbps
Аудио: AC3 Dolby Digital, 6ch, 48000Hz, 448kbps



General
Complete name : Mimino.1977.O.DVDRip.1400.MediaClub.CurHaJI.avi
Format : AVI
Format/Info : Audio Video Interleave
File size : 1.44 GiB
Duration : 1h 31mn
Overall bit rate : 2 266 Kbps
Movie name : Mimino.1977.O.DVDRip.1400.MediaClub.CurHaJI
Writing application : VirtualDubMod 1.5.10.3 | www.virtualdub-fr.org || (build 2550/release)
Writing library : VirtualDub build 35491/release

Video
ID : 0
Format : MPEG-4 Visual
Format profile : Advanced Simple@L5
Format settings, BVOP : 1
Format settings, QPel : No
Format settings, GMC : No warppoints
Format settings, Matrix : Custom
Codec ID : XVID
Codec ID/Hint : XviD
Duration : 1h 31mn
Bit rate : 1 808 Kbps
Width : 704 pixels
Height : 528 pixels
Display aspect ratio : 4:3
Frame rate : 25.000 fps
Color space : YUV
Chroma subsampling : 4:2:0
Bit depth : 8 bits
Scan type : Progressive
Compression mode : Lossy
Bits/(Pixel*Frame) : 0.195
Stream size : 1.15 GiB (80%)
Writing library : XviD 1.2.1 (UTC 2008-12-04)

Audio
ID : 1
Format : AC-3
Format/Info : Audio Coding 3
Mode extension : CM (complete main)
Format settings, Endianness : Big
Codec ID : 2000
Duration : 1h 31mn
Bit rate mode : Constant
Bit rate : 448 Kbps
Channel(s) : 6 channels
Channel positions : Front: L C R, Side: L R, LFE
Sampling rate : 48.0 KHz
Bit depth : 16 bits
Compression mode : Lossy
Stream size : 292 MiB (20%)
Alignment : Split accross interleaves
Interleave, duration : 40 ms (1.00 video frame)
Interleave, preload duration : 500 ms



Релиз от:



   Похожие торренты   Торрент   Размер 
В этой теме нет новых непрочитанных сообщений. Мимино (1977) DVDRip от MediaClub | Реставрация

102 | 18

741.91 МБ

В этой теме нет новых непрочитанных сообщений. Мимино (1977) DVDRip

804 | 26

1.46 ГБ

В этой теме нет новых непрочитанных сообщений. Мимино (1977) DVDRip от KINOREAKTOR

40 | 6

1.57 ГБ

В этой теме нет новых непрочитанных сообщений. Мимино (1977) DVDRip-AVC от Youtracker

83 | 7

1.46 ГБ

В этой теме нет новых непрочитанных сообщений. Мимино (1977) DVD5

8 | 6

4.28 ГБ

В этой теме нет новых непрочитанных сообщений. Мимино (1977) DVD9

22 | 6

6.03 ГБ

В этой теме нет новых непрочитанных сообщений. Мимино (1977) WEB-DLRip

41 | 3

1.37 ГБ




Вы не можете начинать темы
Вы не можете отвечать на сообщения
Вы не можете редактировать свои сообщения
Вы не можете удалять свои сообщения
Вы не можете добавлять вложения

Перейти:  
Для Мосгорсуда, Роскомнадзора и рекламодателей: mosgorsud-torrent[собачка]yandex.ru
 Вход
ppkBB3cker v.2 © 2008-2014 @ PPK
[ Time : 0.061s | 15 Queries | GZIP : Off ]

Торрент трекер RUTOR.IN, Не можете зайти на rutor.org? Какой новый адрес рутор? Какое зеркало рутор? Не работает rutor.org и зеркала? Тогда наш торрент специально для вас. Rutor.in неофициальное зеркало rutor. В случае если у Вас заблокирован rutor или вдруг Вы не можете на него зайти, то Вы без труда сможете скачать бесплатно и без рекламы последние новинки кино, игр, сериалов и прочего у нас, на Rutor.in. Не нужно использовать прокси, чтобы зайти на рутор, достаточно воспользоваться нашим ресурсом. Все новые фильмы, игры, сериалы, книги и музыка за 2013 и 2014 годы через торрент бесплатно. Скачивайте фильмы в хорошем качестве, игры для пк, xbox, playstation без регистрации. У нас вы найдете новые Зарубежные сериалы и Русские сериалы 2013, 2014, 2015 годов. Оставайтесь с нами, качайте любимые фильмы, игры, сериалы, книги и музыку.