img image001 image001 image001 image001 image001 image001 image001 image001 image001 image001 image001 image001 image001 image001 image001

Planets Sun Sun Sun
Статистика раздачи
Автор: Nickolas3434 | Размер: 745.17 МБ | Добавлен: 03 мар 2015
Раздают: 87    Качают: 19
Скачать торрент
Скачать торрент
Описание торрента

СообщениеДобавлено: 03 мар 2015 

Информация о фильме
Название: О, счастливчик!
Год выхода: 2009
Жанр: Комедия, приключения, фэнтези
Режиссёр: Эдуард Парри
В ролях: Михаил Тарабукин, Владимир Меньшов, Сергей Шакуров, Владимир Кристовский, Ольга Полякова, Вячеслав Разбегаев, Семен Фурман, Сергей Векслер, Армен Джигарханян, Алексей Панин, Андрей Мерзликин, Максим Коновалов, Виталий Хаев, Сергей Зверев, Александр Стефанцов, Игорь Куролесов, Алексей Дмитриев, Александр Ясинский, Евгений Хоменок, Дмитрий Гаврилов, Елена Лабутина

О фильме:
Это молодёжная комедия о том, как в один прекрасный день, Славику, обычному молодому человеку показалось, что жизнь его слишком банальна, непримечательна и лишена всяческого смысла. У него нет приличной работы, образования, девушки… Он решает умереть, прыгнув с моста. Но неожиданно появляются два экстравагантных джентльмена: Олег Генрихович и Константин Германович, которые убеждают героя в том, что самоубийство - не выход. Ему предлагают поменять свою биографию и начать новую благополучную жизнь. Но как только Славик избавляется от собственных проблем, тут же начинаются новые! Игра в «чужую» жизнь превращается в калейдоскоп веселых, грустных, а порой и страшных историй...



Выпущено: Россия, Star Media
Продолжительность: 01:35:53
Перевод: Не требуется

Файл
Качество: BDRip [Исходник: Blu-ray RUS 1080p AVC LPCM 5.1]
Видео: XviD, 949 Кбит/с, 640x272 (2.35:1), 24 кадр/с
Аудио: Русский, MP3, 48000 Гц, 128 Кбит/с, 2 канала (Стерео)
Субтитры: Нет



General
Complete name : O.schastlivchik.2009.BDRip.745MB.avi
Format : AVI
Format/Info : Audio Video Interleave
File size : 745 MiB
Duration : 1h 35mn
Overall bit rate : 1 087 Kbps
Writing application : VirtualDubMod 1.5.10.3 (build 2550/release)
Writing library : VirtualDubMod build 2550/release
Copyright : rip by ivandubskoj

Video
ID : 0
Format : MPEG-4 Visual
Format profile : Advanced Simple@L5
Format settings, BVOP : 2
Format settings, QPel : No
Format settings, GMC : No warppoints
Format settings, Matrix : Custom
Codec ID : XVID
Codec ID/Hint : XviD
Duration : 1h 35mn
Bit rate : 949 Kbps
Width : 640 pixels
Height : 272 pixels
Display aspect ratio : 2.35:1
Frame rate : 24.000 fps
Color space : YUV
Chroma subsampling : 4:2:0
Bit depth : 8 bits
Scan type : Progressive
Compression mode : Lossy
Bits/(Pixel*Frame) : 0.227
Stream size : 651 MiB (87%)
Writing library : XviD 73

Audio
ID : 1
Format : MPEG Audio
Format version : Version 1
Format profile : Layer 3
Codec ID : 55
Codec ID/Hint : MP3
Duration : 1h 35mn
Bit rate mode : Constant
Bit rate : 128 Kbps
Channel(s) : 2 channels
Sampling rate : 48.0 KHz
Compression mode : Lossy
Stream size : 87.8 MiB (12%)
Alignment : Aligned on interleaves
Interleave, duration : 42 ms (1.00 video frame)
Interleave, preload duration : 504 ms
Writing library : LAME3.99r
Encoding settings : -m s -V 4 -q 0 -lowpass 17 -b 128




Автор рипа - ivandubskoj



   Похожие торренты   Торрент   Размер 
В этой теме нет новых непрочитанных сообщений. О, счастливчик! (2009) BDRip 720p от ivandubskoj | Лицензия

134 | 29

4.38 ГБ

В этой теме нет новых непрочитанных сообщений. О, счастливчик! (2009) Blu-Ray Remux 1080p от ivandubskoj | Лицензия

16 | 6

18.18 ГБ

В этой теме нет новых непрочитанных сообщений. О, счастливчик! (2009) Blu-Ray Remux 1080p от ivandubskoj

4 | 17

17.19 ГБ

В этой теме нет новых непрочитанных сообщений. Ласковый май (2009) BDRip 720p от ivandubskoj | Лицензия

192 | 26

4.37 ГБ

В этой теме нет новых непрочитанных сообщений. О, счастливчик! (2009) BDRip от HQCLUB

107 | 15

1.46 ГБ

В этой теме нет новых непрочитанных сообщений. О, счастливчик! (2009) BDRip 1080p от FreeHD

2 | 3

7.95 ГБ

В этой теме нет новых непрочитанных сообщений. Счастливчик / The Lucky One (2012) BDRip 720p | Лицензия

91 | 7

4.82 ГБ




Вы не можете начинать темы
Вы не можете отвечать на сообщения
Вы не можете редактировать свои сообщения
Вы не можете удалять свои сообщения
Вы не можете добавлять вложения

Перейти:  
Для Мосгорсуда, Роскомнадзора и рекламодателей: mosgorsud-torrent[собачка]yandex.ru
 Вход
ppkBB3cker v.2 © 2008-2014 @ PPK
[ Time : 2.443s | 16 Queries | GZIP : Off ]

Торрент трекер RUTOR.IN, Не можете зайти на rutor.org? Какой новый адрес рутор? Какое зеркало рутор? Не работает rutor.org и зеркала? Тогда наш торрент специально для вас. Rutor.in неофициальное зеркало rutor. В случае если у Вас заблокирован rutor или вдруг Вы не можете на него зайти, то Вы без труда сможете скачать бесплатно и без рекламы последние новинки кино, игр, сериалов и прочего у нас, на Rutor.in. Не нужно использовать прокси, чтобы зайти на рутор, достаточно воспользоваться нашим ресурсом. Все новые фильмы, игры, сериалы, книги и музыка за 2013 и 2014 годы через торрент бесплатно. Скачивайте фильмы в хорошем качестве, игры для пк, xbox, playstation без регистрации. У нас вы найдете новые Зарубежные сериалы и Русские сериалы 2013, 2014, 2015 годов. Оставайтесь с нами, качайте любимые фильмы, игры, сериалы, книги и музыку.
cron