img image001 image001 image001 image001 image001 image001 image001 image001 image001 image001 image001 image001 image001 image001 image001

Planets Sun Sun Sun
Статистика раздачи
Автор: Nickolas3434 | Размер: 745.28 МБ | Добавлен: 03 мар 2015
Раздают: 443    Качают: 47
Скачать торрент
Скачать торрент
Описание торрента

СообщениеДобавлено: 03 мар 2015 

Информация о фильме
Название: Личный интерес
Год выхода: 2015
Жанр: Мелодрама
Режиссер: Анатолий Григорьев
В ролях: Кирилл Жандаров, Галина Безрук, Алексей Нагрудный

О фильме:
Татьяна, совершив побег из колонии, поселяется в доме своей покойной бабушки в глухом селе Павловка. Там она встречает Максима, который приехал в деревню, чтобы отдохнуть от городской суеты. Между ними возникает взаимное чувство. Тем временем в Павловке появляется Олег — бывший жених Татьяны. Таня вынуждена рассказать Максиму всю правду о себе — о том, как она вместе с Олегом совершила ограбление, как взяла всю вину на себя и как сбежала из зоны. Максим заверяет любимую, что поможет ей и всегда будет рядом. Но не всё так просто: Максим не тот, за кого себя выдаёт…
Страна: Россия
Продолжительность: 01:27:27
Перевод: Не требуется



Файл
Кодек: XviD
Качество: HDTVRip
Видео: 624x352 (16:9) (1.77:1), 25 fps, XviD build 73 ~1053 kbps avg, 0.19 bit/pixel
Звук: 48 kHz, MPEG Layer 3, 2 ch, ~128.00 kbps avg
Субтитры: Отсутствует

Семпл
General
Complete name : D:ТоррентМОИ РИПЫЛичный интересLichnyy.interes.2014.HDTVRip.от Шкипер.avi
Format : AVI
Format/Info : Audio Video Interleave
File size : 745 MiB
Duration : 1h 27mn
Overall bit rate : 1 191 Kbps
Writing application : VirtualDubMod 1.5.10.3 | www.virtualdub-fr.org || (build 2550/release)
Writing library : VirtualDubMod build 2550/release

Video
ID : 0
Format : MPEG-4 Visual
Format profile : Advanced Simple@L5
Format settings, BVOP : 1
Format settings, QPel : No
Format settings, GMC : No warppoints
Format settings, Matrix : Default (MPEG)
Codec ID : XVID
Codec ID/Hint : XviD
Duration : 1h 27mn
Bit rate : 1 054 Kbps
Width : 624 pixels
Height : 352 pixels
Display aspect ratio : 16:9
Frame rate : 25.000 fps
Color space : YUV
Chroma subsampling : 4:2:0
Bit depth : 8 bits
Scan type : Progressive
Compression mode : Lossy
Bits/(Pixel*Frame) : 0.192
Stream size : 659 MiB (88%)
Writing library : XviD 73

Audio
ID : 1
Format : MPEG Audio
Format version : Version 1
Format profile : Layer 3
Mode : Joint stereo
Mode extension : MS Stereo
Codec ID : 55
Codec ID/Hint : MP3
Duration : 1h 27mn
Bit rate mode : Constant
Bit rate : 128 Kbps
Channel(s) : 2 channels
Sampling rate : 48.0 KHz
Compression mode : Lossy
Stream size : 80.1 MiB (11%)
Alignment : Aligned on interleaves
Interleave, duration : 40 ms (1.00 video frame)
Interleave, preload duratio : 504 ms
Writing library : LAME3.99r
Encoding settings : -m j -V 4 -q 2 -lowpass 17 -b 128


Рип от:



   Похожие торренты   Торрент   Размер 
В этой теме нет новых непрочитанных сообщений. Личный интерес (2015) HDTVRip 720p от MediaClub

1546 | 48

2.43 ГБ

В этой теме нет новых непрочитанных сообщений. Личный интерес (2015) WEB-DLRip от Files-x

6245 | 312

1.37 ГБ

В этой теме нет новых непрочитанных сообщений. Личный интерес (2015) HDTV 1080i от MediaClub

420 | 32

5.25 ГБ

В этой теме нет новых непрочитанных сообщений. Илья Старинов: Личный Враг Гитлера (2015) HDTVRip 720p

436 | 58

1.3 ГБ

В этой теме нет новых непрочитанных сообщений. Шоу-цивилизация - Л.К.Фионова в программе Народный интерес (2015) HDRip-AVC

10 | 1

130.27 МБ

В этой теме нет новых непрочитанных сообщений. Шанс [01-02 из 02] (2015) HDTVRip от Шкипер

536 | 45

1.46 ГБ

В этой теме нет новых непрочитанных сообщений. Вьюга (2015) HDTVRip от Шкипер

1435 | 141

745.19 МБ




Вы не можете начинать темы
Вы не можете отвечать на сообщения
Вы не можете редактировать свои сообщения
Вы не можете удалять свои сообщения
Вы не можете добавлять вложения

Перейти:  
Для Мосгорсуда, Роскомнадзора и рекламодателей: mosgorsud-torrent[собачка]yandex.ru
 Вход
ppkBB3cker v.2 © 2008-2014 @ PPK
[ Time : 0.100s | 17 Queries | GZIP : Off ]

Торрент трекер RUTOR.IN, Не можете зайти на rutor.org? Какой новый адрес рутор? Какое зеркало рутор? Не работает rutor.org и зеркала? Тогда наш торрент специально для вас. Rutor.in неофициальное зеркало rutor. В случае если у Вас заблокирован rutor или вдруг Вы не можете на него зайти, то Вы без труда сможете скачать бесплатно и без рекламы последние новинки кино, игр, сериалов и прочего у нас, на Rutor.in. Не нужно использовать прокси, чтобы зайти на рутор, достаточно воспользоваться нашим ресурсом. Все новые фильмы, игры, сериалы, книги и музыка за 2013 и 2014 годы через торрент бесплатно. Скачивайте фильмы в хорошем качестве, игры для пк, xbox, playstation без регистрации. У нас вы найдете новые Зарубежные сериалы и Русские сериалы 2013, 2014, 2015 годов. Оставайтесь с нами, качайте любимые фильмы, игры, сериалы, книги и музыку.