img image001 image001 image001 image001 image001 image001 image001 image001 image001 image001 image001 image001 image001 image001 image001

Planets Sun Sun Sun
Статистика раздачи
Автор: Nickolas3434 | Размер: 744.32 МБ | Добавлен: 04 мар 2015
Раздают: 189    Качают: 12
Скачать торрент
Скачать торрент
Описание торрента

СообщениеДобавлено: 04 мар 2015 

Страна: СССР
Производство: Союздетфильм, Студия Сталинобад

Жанр: приключения
Год выпуска: 1943
Продолжительность: 01:06:36

Перевод: Не требуется
Cубтитры: нет
Оригинальная аудиодорожка: русский

Режиссер: Сергей Юткевич

В ролях:
Сергей Мартинсон, Нина Никитина, Фаина Раневская, Павел Шпрингфельд, Борис Тенин, Павел Суханов, Сергей Филиппов, Сергей Троицкий, Алексей Савостьянов, Михаил Трояновский...

Описание:
Йозеф Швейк сбежал из тюрьмы и мобилизовался в армию на Балканы, где действует карательный отряд. Без сомнения и страха он старается помочь партизанам, придумывая хитроумные способы расправы над Гитлером...





Источник: DVD5 R5
Качество видео: DVDRip
Формат видео: AVI

Видео: 688x512 (4:3), 25 fps, XviD ~ 1361 kbps avg, 0.155 bit/pixel
Аудио: 48 kHz, Dolby Digital AC3 2.0, 192 kbps

Раздача от:
Общее
Полное имя : Novye.pohozhdeniya.Shveyka.1943.DVDRip_[New-team]_by_AVP_Studio.avi
Формат : AVI
Формат/Информация : Audio Video Interleave
Размер файла : 744 Мбайт
Продолжительность : 1 ч. 6 м.
Общий поток : 1562 Кбит/сек
Программа кодирования : VirtualDubModRus 1.5.10.2 (build 2542/release)
Библиотека кодирования : VirtualDubMod build 2542/release

Видео
Идентификатор : 0
Формат : MPEG-4 Visual
Профиль формата : Advanced Simple@L5
Параметр BVOP формата : 1
Параметр QPel формата : Нет
Параметр GMC формата : Без точки перехода
Параметр матрицы формата : Выборочная
Идентификатор кодека : XVID
Идентификатор кодека/Подсказка : XviD
Продолжительность : 1 ч. 6 м.
Битрейт : 1361 Кбит/сек
Ширина : 688 пикселей
Высота : 512 пикселей
Соотношение сторон : 4:3
Частота кадров : 25,000 кадров/сек
Цветовое пространство : YUV
Субдискретизация насыщенности : 4:2:0
Битовая глубина : 8 бит
Тип развёртки : Прогрессивная
Метод сжатия : С потерями
Бит/(Пиксели*Кадры) : 0.155
Размер потока : 648 Мбайт (87%)
Библиотека кодирования : XviD 73

Аудио
Идентификатор : 1
Формат : AC-3
Формат/Информация : Audio Coding 3
Расширение режима : CM (complete main)
Параметр Endianness формата : Big
Идентификатор кодека : 2000
Продолжительность : 1 ч. 6 м.
Вид битрейта : Постоянный
Битрейт : 192 Кбит/сек
Каналы : 2 канала
Расположение каналов : Front: L R
Частота : 48,0 КГц
Битовая глубина : 16 бит
Метод сжатия : С потерями
Размер потока : 91,5 Мбайт (12%)
Выравнивание : Разделение по промежуткам
Продолжительность промежутка : 40 мс. (1,00 видеокадр)
Время предзагрузки промежутка : 500 мс





   Похожие торренты   Торрент   Размер 
В этой теме нет новых непрочитанных сообщений. Новые похождения Швейка (1943) DVDRip-AVC от New-Team

318 | 8

745.16 МБ

В этой теме нет новых непрочитанных сообщений. Новые похождения Швейка (1943) DVDRip

48 | 5

697.35 МБ

В этой теме нет новых непрочитанных сообщений. Похождения бравого солдата Швейка (2008) DVDRip

1 | 3

743.95 МБ

В этой теме нет новых непрочитанных сообщений. Похождения бравого солдата Швейка (2011) DVDRip

265 | 9

1.37 ГБ

В этой теме нет новых непрочитанных сообщений. Похождения бравого солдата Швейка (2009) DVDRip от Youtracker

76 | 3

1.47 ГБ

В этой теме нет новых непрочитанных сообщений. Похождения бравого солдата Швейка (2009) DVDRip-AVC от Youtracker

8 | 2

1.46 ГБ

В этой теме нет новых непрочитанных сообщений. Похождения бравого солдата Швейка / Die Abenteuer des braven Soldaten Schwejk [S01] (1972) DVDRip | Р

139 | 102

11.67 ГБ




Вы не можете начинать темы
Вы не можете отвечать на сообщения
Вы не можете редактировать свои сообщения
Вы не можете удалять свои сообщения
Вы не можете добавлять вложения

Перейти:  
Для Мосгорсуда, Роскомнадзора и рекламодателей: mosgorsud-torrent[собачка]yandex.ru
 Вход
ppkBB3cker v.2 © 2008-2014 @ PPK
[ Time : 0.071s | 15 Queries | GZIP : Off ]

Торрент трекер RUTOR.IN, Не можете зайти на rutor.org? Какой новый адрес рутор? Какое зеркало рутор? Не работает rutor.org и зеркала? Тогда наш торрент специально для вас. Rutor.in неофициальное зеркало rutor. В случае если у Вас заблокирован rutor или вдруг Вы не можете на него зайти, то Вы без труда сможете скачать бесплатно и без рекламы последние новинки кино, игр, сериалов и прочего у нас, на Rutor.in. Не нужно использовать прокси, чтобы зайти на рутор, достаточно воспользоваться нашим ресурсом. Все новые фильмы, игры, сериалы, книги и музыка за 2013 и 2014 годы через торрент бесплатно. Скачивайте фильмы в хорошем качестве, игры для пк, xbox, playstation без регистрации. У нас вы найдете новые Зарубежные сериалы и Русские сериалы 2013, 2014, 2015 годов. Оставайтесь с нами, качайте любимые фильмы, игры, сериалы, книги и музыку.