img image001 image001 image001 image001 image001 image001 image001 image001 image001 image001 image001 image001 image001 image001 image001

Planets Sun Sun Sun
Статистика раздачи
Автор: Nickolas3434 | Размер: 745.04 МБ | Добавлен: 06 мар 2015
Раздают: 48    Качают: 7
Скачать торрент
Скачать торрент
Описание торрента

СообщениеДобавлено: 06 мар 2015 

Страна: СССР
Производство: Central Documentary Film Studio

Жанр: документальный, военный, история
Год выпуска: 1945
Продолжительность: 01:03:08

Перевод: Не требуется
Cубтитры: нет
Оригинальная аудиодорожка: русский

Режиссер: Юлий Райзман, Елизавета Свилова

В ролях:
Рудольф Беттгер, В.И. Чулков, Уильям С. Гэйлмор, Карл Спаатс, Ганс-Эрих Восс, Гельмут Вейдлинг, Георгий Жуков...

Описание:
Историческая хроника о последнем решающем сражении c фашистской Германией, о взятии Берлина и о безоговорочной капитуляции германских вооружённых сил. В фильме также, использованы материалы немецкой кинохроники. "Берлин" — это фильм об окончательном крушении гитлеровского рейха.
Художественный руководитель сьемок Юлий Райзман и группа его фильма "Берлин" находились на фронте, продвигаясь к германской столице вместе с войсками 1-го Белорусского фронта. Кинематографисты каждый вечер объезжали передний край. 30 апреля 1945 года оператору Ивану Панову, прорывавшемуся с камерой в руках к Рейхстагу вместе со связным-автоматчиком, удалось из окна четырехэтажного дома на левом берегу Шпрее запечатлеть минуты агонии бывшего парламента: изрешеченные пулями стены, дым из проемов, обломки колонн. Через несколько минут начался последний штурм. Вместе с воинами, держа аппарат наготове, в здание под градом фашистского свинца ворвался кинооператор Иван Панов, а через несколько мгновений над куполом Рейхстага взвилось красное Знамя Победы.
Фильму "Берлин" можно было бы дать подзаголовок "Сюита Победы", что соответствовало бы эмоциональному контрапункту, который лежит в основе монтажа, музыки этой удивительной картины.





Источник: DVD5 R5
Качество видео: DVDRip
Формат видео: AVI

Видео: 688x512 (4:3), 25 fps, XviD ~ 1448 kbps avg, 0.164 bit/pixel
Аудио: 48 kHz, Dolby Digital AC3 2.0, 192 kbps

Раздача от:
Общее
Полное имя : Berlin.1945.DVDRip_[New-team]_by_AVP_Studio.avi
Формат : AVI
Формат/Информация : Audio Video Interleave
Размер файла : 745 Мбайт
Продолжительность : 1 ч. 3 м.
Общий поток : 1650 Кбит/сек
Программа кодирования : VirtualDubModRus 1.5.10.2 (build 2542/release)
Библиотека кодирования : VirtualDubMod build 2542/release

Видео
Идентификатор : 0
Формат : MPEG-4 Visual
Профиль формата : Advanced Simple@L5
Параметр BVOP формата : 1
Параметр QPel формата : Нет
Параметр GMC формата : Без точки перехода
Параметр матрицы формата : Выборочная
Идентификатор кодека : XVID
Идентификатор кодека/Подсказка : XviD
Продолжительность : 1 ч. 3 м.
Битрейт : 1448 Кбит/сек
Ширина : 688 пикселей
Высота : 512 пикселей
Соотношение сторон : 4:3
Частота кадров : 25,000 кадров/сек
Цветовое пространство : YUV
Субдискретизация насыщенности : 4:2:0
Битовая глубина : 8 бит
Тип развёртки : Прогрессивная
Метод сжатия : С потерями
Бит/(Пиксели*Кадры) : 0.164
Размер потока : 654 Мбайт (88%)
Библиотека кодирования : XviD 73

Аудио
Идентификатор : 1
Формат : AC-3
Формат/Информация : Audio Coding 3
Расширение режима : CM (complete main)
Параметр Endianness формата : Big
Идентификатор кодека : 2000
Продолжительность : 1 ч. 3 м.
Вид битрейта : Постоянный
Битрейт : 192 Кбит/сек
Каналы : 2 канала
Расположение каналов : Front: L R
Частота : 48,0 КГц
Битовая глубина : 16 бит
Метод сжатия : С потерями
Размер потока : 86,7 Мбайт (12%)
Выравнивание : Разделение по промежуткам
Продолжительность промежутка : 40 мс. (1,00 видеокадр)
Время предзагрузки промежутка : 500 мс





   Похожие торренты   Торрент   Размер 
В этой теме нет новых непрочитанных сообщений. Берлин (1945) DVDRip-AVC от New-Team

137 | 14

745.06 МБ

В этой теме нет новых непрочитанных сообщений. Берлин 1945 (1945) DVDRip

0 | 4

699.58 МБ

В этой теме нет новых непрочитанных сообщений. Берлин. 1945 год (1945) SATRip от Generalfilm

1 | 38

601.36 МБ

В этой теме нет новых непрочитанных сообщений. Сборник - Дорога на Берлин. Песни Великой Отечественной войны 1941-1945 (2015) MP3

1783 | 71

1.16 ГБ

В этой теме нет новых непрочитанных сообщений. Непокоренные (1945) DVDRip-AVC от New-Team

25 | 4

1.46 ГБ

В этой теме нет новых непрочитанных сообщений. Непокоренные (1945) DVDRip от New-Team

38 | 17

1.46 ГБ

В этой теме нет новых непрочитанных сообщений. Непокоренные (1945) DVDRip от New-Team

19 | 6

746.02 МБ




Вы не можете начинать темы
Вы не можете отвечать на сообщения
Вы не можете редактировать свои сообщения
Вы не можете удалять свои сообщения
Вы не можете добавлять вложения

Перейти:  
Для Мосгорсуда, Роскомнадзора и рекламодателей: mosgorsud-torrent[собачка]yandex.ru
 Вход
ppkBB3cker v.2 © 2008-2014 @ PPK
[ Time : 0.061s | 18 Queries | GZIP : Off ]

Торрент трекер RUTOR.IN, Не можете зайти на rutor.org? Какой новый адрес рутор? Какое зеркало рутор? Не работает rutor.org и зеркала? Тогда наш торрент специально для вас. Rutor.in неофициальное зеркало rutor. В случае если у Вас заблокирован rutor или вдруг Вы не можете на него зайти, то Вы без труда сможете скачать бесплатно и без рекламы последние новинки кино, игр, сериалов и прочего у нас, на Rutor.in. Не нужно использовать прокси, чтобы зайти на рутор, достаточно воспользоваться нашим ресурсом. Все новые фильмы, игры, сериалы, книги и музыка за 2013 и 2014 годы через торрент бесплатно. Скачивайте фильмы в хорошем качестве, игры для пк, xbox, playstation без регистрации. У нас вы найдете новые Зарубежные сериалы и Русские сериалы 2013, 2014, 2015 годов. Оставайтесь с нами, качайте любимые фильмы, игры, сериалы, книги и музыку.