img image001 image001 image001 image001 image001 image001 image001 image001 image001 image001 image001 image001 image001 image001 image001

Planets Sun Sun Sun
Статистика раздачи
Автор: Nickolas3434 | Размер: 745.06 МБ | Добавлен: 06 мар 2015
Раздают: 137    Качают: 14
Скачать торрент
Скачать торрент
Описание торрента

СообщениеДобавлено: 06 мар 2015 

Страна: СССР
Производство: Central Documentary Film Studio

Жанр: документальный, военный, история
Год выпуска: 1945
Продолжительность: 01:03:08

Перевод: Не требуется
Cубтитры: нет
Оригинальная аудиодорожка: русский

Режиссер: Юлий Райзман, Елизавета Свилова

В ролях:
Рудольф Беттгер, В.И. Чулков, Уильям С. Гэйлмор, Карл Спаатс, Ганс-Эрих Восс, Гельмут Вейдлинг, Георгий Жуков...

Описание:
Историческая хроника о последнем решающем сражении c фашистской Германией, о взятии Берлина и о безоговорочной капитуляции германских вооружённых сил. В фильме также, использованы материалы немецкой кинохроники. "Берлин" — это фильм об окончательном крушении гитлеровского рейха.
Художественный руководитель сьемок Юлий Райзман и группа его фильма "Берлин" находились на фронте, продвигаясь к германской столице вместе с войсками 1-го Белорусского фронта. Кинематографисты каждый вечер объезжали передний край. 30 апреля 1945 года оператору Ивану Панову, прорывавшемуся с камерой в руках к Рейхстагу вместе со связным-автоматчиком, удалось из окна четырехэтажного дома на левом берегу Шпрее запечатлеть минуты агонии бывшего парламента: изрешеченные пулями стены, дым из проемов, обломки колонн. Через несколько минут начался последний штурм. Вместе с воинами, держа аппарат наготове, в здание под градом фашистского свинца ворвался кинооператор Иван Панов, а через несколько мгновений над куполом Рейхстага взвилось красное Знамя Победы.
Фильму "Берлин" можно было бы дать подзаголовок "Сюита Победы", что соответствовало бы эмоциональному контрапункту, который лежит в основе монтажа, музыки этой удивительной картины.





Источник: DVD5 R5
Качество видео: DVDRip-AVC
Формат видео: MKV

Видео: 696->752x564 (4:3), 25 fps, H264 ~ 1456 kbps avg, 0.148 bit/pixel
Аудио: 48 kHz, Dolby Digital AC3 2.0, 192 kbps

Раздача от:
Общее
Полное имя : Berlin.1945.DVDRip-AVC_[New-team]_by_AVP_Studio.mkv
Формат : Matroska
Версия формата : Version 2
Размер файла : 745 Мбайт
Продолжительность : 1 ч. 3 м.
Общий поток : 1650 Кбит/сек
Дата кодирования : UTC 2015-03-03 19:37:37
Программа кодирования : mkvmerge v6.1.0 ('Old Devil') built on Mar 4 2013 09:10:42
Библиотека кодирования : libebml v1.3.0 + libmatroska v1.4.0

Видео
Идентификатор : 1
Формат : AVC
Формат/Информация : Advanced Video Codec
Профиль формата : High@L4.1
Параметр CABAC формата : Да
Параметр ReFrames формата : 8 кадров
Идентификатор кодека : V_MPEG4/ISO/AVC
Продолжительность : 1 ч. 3 м.
Битрейт : 1456 Кбит/сек
Ширина : 696 пикселей
Высота : 564 пикселя
Соотношение сторон : 4:3
Режим частоты кадров : Постоянный
Частота кадров : 25,000 кадров/сек
Цветовое пространство : YUV
Субдискретизация насыщенности : 4:2:0
Битовая глубина : 8 бит
Тип развёртки : Прогрессивная
Бит/(Пиксели*Кадры) : 0.148
Размер потока : 644 Мбайт (86%)
Библиотека кодирования : x264 core 138 r2356 a1d3d17
Настройки программы : cabac=1 / ref=8 / deblock=1:-2:-1 / analyse=0x3:0x113 / me=umh / subme=10 / psy=1 / psy_rd=1.00:0.05 / mixed_ref=1 / me_range=32 / chroma_me=1 / trellis=2 / 8x8dct=1 / cqm=0 / deadzone=21,11 / fast_pskip=0 / chroma_qp_offset=-3 / threads=6 / lookahead_threads=1 / sliced_threads=0 / nr=0 / decimate=0 / interlaced=0 / bluray_compat=0 / constrained_intra=0 / bframes=8 / b_pyramid=2 / b_adapt=2 / b_bias=0 / direct=3 / weightb=1 / open_gop=0 / weightp=2 / keyint=250 / keyint_min=25 / scenecut=40 / intra_refresh=0 / rc=2pass / mbtree=0 / bitrate=1456 / ratetol=1.0 / qcomp=0.60 / qpmin=0 / qpmax=69 / qpstep=4 / cplxblur=20.0 / qblur=0.5 / ip_ratio=1.40 / pb_ratio=1.30 / aq=1:1.00
Default : Да
Forced : Нет

Аудио
Идентификатор : 2
Формат : AC-3
Формат/Информация : Audio Coding 3
Расширение режима : CM (complete main)
Параметр Endianness формата : Big
Идентификатор кодека : A_AC3
Продолжительность : 1 ч. 3 м.
Вид битрейта : Постоянный
Битрейт : 192 Кбит/сек
Каналы : 2 канала
Расположение каналов : Front: L R
Частота : 48,0 КГц
Битовая глубина : 16 бит
Метод сжатия : С потерями
Размер потока : 86,7 Мбайт (12%)
Default : Да
Forced : Нет





   Похожие торренты   Торрент   Размер 
В этой теме нет новых непрочитанных сообщений. Берлин (1945) DVDRip от New-Team

48 | 7

745.04 МБ

В этой теме нет новых непрочитанных сообщений. Берлин 1945 (1945) DVDRip

0 | 4

699.58 МБ

В этой теме нет новых непрочитанных сообщений. Берлин. 1945 год (1945) SATRip от Generalfilm

1 | 38

601.36 МБ

В этой теме нет новых непрочитанных сообщений. Сборник - Дорога на Берлин. Песни Великой Отечественной войны 1941-1945 (2015) MP3

1783 | 71

1.16 ГБ

В этой теме нет новых непрочитанных сообщений. Непокоренные (1945) DVDRip от New-Team

19 | 6

746.02 МБ

В этой теме нет новых непрочитанных сообщений. Непокоренные (1945) DVDRip от New-Team

38 | 17

1.46 ГБ

В этой теме нет новых непрочитанных сообщений. Непокоренные (1945) DVDRip-AVC от New-Team

25 | 4

1.46 ГБ




Вы не можете начинать темы
Вы не можете отвечать на сообщения
Вы не можете редактировать свои сообщения
Вы не можете удалять свои сообщения
Вы не можете добавлять вложения

Перейти:  
Для Мосгорсуда, Роскомнадзора и рекламодателей: mosgorsud-torrent[собачка]yandex.ru
 Вход
ppkBB3cker v.2 © 2008-2014 @ PPK
[ Time : 0.034s | 16 Queries | GZIP : Off ]

Торрент трекер RUTOR.IN, Не можете зайти на rutor.org? Какой новый адрес рутор? Какое зеркало рутор? Не работает rutor.org и зеркала? Тогда наш торрент специально для вас. Rutor.in неофициальное зеркало rutor. В случае если у Вас заблокирован rutor или вдруг Вы не можете на него зайти, то Вы без труда сможете скачать бесплатно и без рекламы последние новинки кино, игр, сериалов и прочего у нас, на Rutor.in. Не нужно использовать прокси, чтобы зайти на рутор, достаточно воспользоваться нашим ресурсом. Все новые фильмы, игры, сериалы, книги и музыка за 2013 и 2014 годы через торрент бесплатно. Скачивайте фильмы в хорошем качестве, игры для пк, xbox, playstation без регистрации. У нас вы найдете новые Зарубежные сериалы и Русские сериалы 2013, 2014, 2015 годов. Оставайтесь с нами, качайте любимые фильмы, игры, сериалы, книги и музыку.
cron