img image001 image001 image001 image001 image001 image001 image001 image001 image001 image001 image001 image001 image001 image001 image001

Planets Sun Sun Sun
Статистика раздачи
Автор: Nickolas3434 | Размер: 1.46 ГБ | Добавлен: 06 мар 2015
Раздают: 328    Качают: 19
Скачать торрент
Скачать торрент
Описание торрента

СообщениеДобавлено: 06 мар 2015 

Страна: СССР
Производство: Мосфильм

Жанр: документальный, военный, история
Год выпуска: 1965
Продолжительность: 02:10:00 (01:07:58 + 01:02:02)

Перевод: Не требуется
Cубтитры: нет
Оригинальная аудиодорожка: русский

Режиссер: Михаил Ромм

В ролях:
Михаил Ромм, Марлен Дитрих, Дзюкити Уно...

Описание:
«Показывая вам нашу картину, мы, разумеется, не рассчитывали осветить все формы такого явления как фашизм. Это невозможно в пределах одной картины. Да это невозможно хотя бы потому, что многое, очень важное, не оставило никаких следов на пленке. Не было снято. Из огромного количества материала мы отобрали то, что показалось нам самым поразительным, что дает нам возможность вместе с вами поразмышлять…»





Источник: DVD9 R5
Качество видео: DVDRip
Формат видео: AVI

Видео: 688x512 (4:3), 25 fps, XviD ~ 1467 kbps avg, 0.167 bit/pixel
Аудио: 48 kHz, MP3 2.0, 128 kbps

Раздача от:
Общее
Полное имя : Obyknovennyy.fashizm.1965.DVDRip-1,46_[New-team]_by_AVP_StudioЧасть 1.avi
Формат : AVI
Формат/Информация : Audio Video Interleave
Размер файла : 780 Мбайт
Продолжительность : 1 ч. 7 м.
Общий поток : 1604 Кбит/сек
Программа кодирования : VirtualDubModRus 1.5.10.2 (build 2542/release)
Библиотека кодирования : VirtualDubMod build 2542/release

Видео
Идентификатор : 0
Формат : MPEG-4 Visual
Профиль формата : Advanced Simple@L5
Параметр BVOP формата : 1
Параметр QPel формата : Нет
Параметр GMC формата : Без точки перехода
Параметр матрицы формата : Выборочная
Идентификатор кодека : XVID
Идентификатор кодека/Подсказка : XviD
Продолжительность : 1 ч. 7 м.
Битрейт : 1467 Кбит/сек
Ширина : 688 пикселей
Высота : 512 пикселей
Соотношение сторон : 4:3
Частота кадров : 25,000 кадров/сек
Цветовое пространство : YUV
Субдискретизация насыщенности : 4:2:0
Битовая глубина : 8 бит
Тип развёртки : Прогрессивная
Метод сжатия : С потерями
Бит/(Пиксели*Кадры) : 0.167
Размер потока : 713 Мбайт (91%)
Библиотека кодирования : XviD 73

Аудио
Идентификатор : 1
Формат : MPEG Audio
Версия формата : Version 1
Профиль формата : Layer 3
Идентификатор кодека : 55
Идентификатор кодека/Подсказка : MP3
Продолжительность : 1 ч. 7 м.
Вид битрейта : Постоянный
Битрейт : 128 Кбит/сек
Каналы : 2 канала
Частота : 48,0 КГц
Метод сжатия : С потерями
Размер потока : 62,2 Мбайт (8%)
Выравнивание : Соединение по промежуткам
Продолжительность промежутка : 40 мс. (1,00 видеокадр)
Время предзагрузки промежутка : 504 мс.
Библиотека кодирования : LAME3.99r
Настройки программы : -m s -V 4 -q 2 -lowpass 17 -b 128





   Похожие торренты   Торрент   Размер 
В этой теме нет новых непрочитанных сообщений. Обыкновенный фашизм (1965) DVDRip-AVC от New-Team

432 | 30

1.46 ГБ

В этой теме нет новых непрочитанных сообщений. Обыкновенный фашизм (1965) DVDRip от New-Team

385 | 23

2.19 ГБ

В этой теме нет новых непрочитанных сообщений. Обыкновенный фашизм (1965) DVDRip-AVC

35 | 3

1.46 ГБ

В этой теме нет новых непрочитанных сообщений. Обыкновенный преступник / Ordinary Decent Criminal (2000) BDRip от New-Team | P

82 | 4

744.53 МБ

В этой теме нет новых непрочитанных сообщений. Обыкновенный преступник / Ordinary Decent Criminal (2000) BDRip-AVC от New-Team | P

98 | 15

2.18 ГБ

В этой теме нет новых непрочитанных сообщений. Обыкновенный преступник / Ordinary Decent Criminal (2000) BDRip 720p от New-Team | P

426 | 74

2.91 ГБ

В этой теме нет новых непрочитанных сообщений. Обыкновенный преступник / Ordinary Decent Criminal (2000) BDRip 720p от Element team | P

1 | 2

2.19 ГБ




Вы не можете начинать темы
Вы не можете отвечать на сообщения
Вы не можете редактировать свои сообщения
Вы не можете удалять свои сообщения
Вы не можете добавлять вложения

Перейти:  
Для Мосгорсуда, Роскомнадзора и рекламодателей: mosgorsud-torrent[собачка]yandex.ru
 Вход
ppkBB3cker v.2 © 2008-2014 @ PPK
[ Time : 0.019s | 17 Queries | GZIP : Off ]

Торрент трекер RUTOR.IN, Не можете зайти на rutor.org? Какой новый адрес рутор? Какое зеркало рутор? Не работает rutor.org и зеркала? Тогда наш торрент специально для вас. Rutor.in неофициальное зеркало rutor. В случае если у Вас заблокирован rutor или вдруг Вы не можете на него зайти, то Вы без труда сможете скачать бесплатно и без рекламы последние новинки кино, игр, сериалов и прочего у нас, на Rutor.in. Не нужно использовать прокси, чтобы зайти на рутор, достаточно воспользоваться нашим ресурсом. Все новые фильмы, игры, сериалы, книги и музыка за 2013 и 2014 годы через торрент бесплатно. Скачивайте фильмы в хорошем качестве, игры для пк, xbox, playstation без регистрации. У нас вы найдете новые Зарубежные сериалы и Русские сериалы 2013, 2014, 2015 годов. Оставайтесь с нами, качайте любимые фильмы, игры, сериалы, книги и музыку.