img image001 image001 image001 image001 image001 image001 image001 image001 image001 image001 image001 image001 image001 image001 image001

Planets Sun Sun Sun
Статистика раздачи
Автор: Nickolas3434 | Размер: 1.46 ГБ | Добавлен: 06 мар 2015
Раздают: 30    Качают: 5
Скачать торрент
Скачать торрент
Описание торрента

СообщениеДобавлено: 06 мар 2015 

Информация о фильме
Оригинальное название: Белорусский вокзал
Год выхода: 1971
Жанр: Драма
Режиссер: Андрей Смирнов
В ролях: Алексей Глазырин, Евгений Леонов, Анатолий Папанов, Всеволод Сафонов, Нина Ургант, Раиса Куркина, Любовь Соколова, Маргарита Терехова, Никифор Колофидин, Юрий Орлов, Николай Волков мл., Александр Январёв, Валентина Ананьина, Людмила Аринина, Юрий Визбор, Юрий Волынцев, Владимир Грамматиков, Кира Жаркова, Валерий Малышев, Виктор Проскурин, Федор Селезнёв, Елена Скачкова, Николай Граббе, Светлана Данильченко, Петр Морозов, Юрий Будилов, Сергей Байдин, Евгений Николаев, Виктор Разоренов, Станислав Бородокин, Николай Смирнов
О фильме:
Герои фильма расстались на Белорусском вокзале летом 1945-го. Спустя четверть века они встречаются на похоронах боевого товарища. В их душах с новой силой оживает пережитое. Время не властно над их памятью: ветераны сохранили верность фронтовой дружбе, способность жертвовать собой, неистребимую любовь к жизни.



Страна: СССР, Мосфильм
Продолжительность: 01:35:16
Язык: Русский

Файл
Кодек: XviD
Качество: HDTVRip
Видео: 1993 Кбит/с, 720x304
Звук: AC3, 2 ch, 192 Кбит/с

Формат : AVI
Формат/Информация : Audio Video Interleave
Размер файла : 1,46 Гбайт
Продолжительность : 1 ч. 35 м.
Общий поток : 2195 Кбит/сек
Название фильма : Belorusskij.vokzal.1971.XviD.HDTVRip.ExKinoRay
Программа кодирования : VirtualDubMod 1.5.10.3 | www.virtualdub-fr.org || (build 2550/release)
Правообладатель : Rip by Enigma-Vladislav71

Видео
Идентификатор : 0
Формат : MPEG-4 Visual
Профиль формата : Advanced Simple@L5
Параметр BVOP формата : 1
Параметр QPel формата : Нет
Параметр GMC формата : Без точки перехода
Параметр матрицы формата : Default (MPEG)
Идентификатор кодека : XVID
Идентификатор кодека/Подсказка : XviD
Продолжительность : 1 ч. 35 м.
Битрейт : 1993 Кбит/сек
Ширина : 720 пикс.
Высота : 304 пикс.
Соотношение сторон : 2,35:1
Частота кадров : 25,000 кадр/сек
Цветовое пространство : YUV
Подвыборка цветности : 4:2:0
Битовая глубина : 8 бит
Тип развёртки : Прогрессивная
Метод сжатия : С потерями
Бит/(Пиксели*Кадры) : 0.364
Размер потока : 1,33 Гбайт (91%)
Библиотека кодирования : XviD 1.2.1 (UTC 2008-12-04)

Аудио
Идентификатор : 1
Формат : AC-3
Формат/Информация : Audio Coding 3
Расширение режима : CM (complete main)
Идентификатор кодека : 2000
Продолжительность : 1 ч. 35 м.
Вид битрейта : Постоянный
Битрейт : 192 Кбит/сек
Каналы : 2 канала
Расположение каналов : Front: L R
Частота : 48,0 КГц
Битовая глубина : 16 бит
Метод сжатия : С потерями
Размер потока : 131 Мбайт (9%)
Выравнивание : Разделение по промежуткам
Продолжительность промежутка : 40 мс. (1,00 видеокадр)



Релиз от:

Авторы релиза:



   Похожие торренты   Торрент   Размер 
В этой теме нет новых непрочитанных сообщений. Белорусский вокзал (1971) HDTVRip-AVC от ExKinoRay

83 | 10

1.76 ГБ

В этой теме нет новых непрочитанных сообщений. Белорусский вокзал (1971) WEBRip-AVC от ExKinoRay

26 | 13

1.46 ГБ

В этой теме нет новых непрочитанных сообщений. Белорусский вокзал (1971) BDRip-AVC

274 | 23

1.77 ГБ

В этой теме нет новых непрочитанных сообщений. Белорусский вокзал (1971) Blu-ray 1080p

102 | 10

20.82 ГБ

В этой теме нет новых непрочитанных сообщений. Белорусский вокзал (1971) BDRip

188 | 35

745.15 МБ

В этой теме нет новых непрочитанных сообщений. Белорусский вокзал (1971) DVDRip от Youtracker

20 | 20

745.25 МБ

В этой теме нет новых непрочитанных сообщений. Белорусский вокзал (1971) BDRemux 1080p

8 | 9

17.94 ГБ




Вы не можете начинать темы
Вы не можете отвечать на сообщения
Вы не можете редактировать свои сообщения
Вы не можете удалять свои сообщения
Вы не можете добавлять вложения

Перейти:  
Для Мосгорсуда, Роскомнадзора и рекламодателей: mosgorsud-torrent[собачка]yandex.ru
 Вход
ppkBB3cker v.2 © 2008-2014 @ PPK
[ Time : 2.022s | 15 Queries | GZIP : Off ]

Торрент трекер RUTOR.IN, Не можете зайти на rutor.org? Какой новый адрес рутор? Какое зеркало рутор? Не работает rutor.org и зеркала? Тогда наш торрент специально для вас. Rutor.in неофициальное зеркало rutor. В случае если у Вас заблокирован rutor или вдруг Вы не можете на него зайти, то Вы без труда сможете скачать бесплатно и без рекламы последние новинки кино, игр, сериалов и прочего у нас, на Rutor.in. Не нужно использовать прокси, чтобы зайти на рутор, достаточно воспользоваться нашим ресурсом. Все новые фильмы, игры, сериалы, книги и музыка за 2013 и 2014 годы через торрент бесплатно. Скачивайте фильмы в хорошем качестве, игры для пк, xbox, playstation без регистрации. У нас вы найдете новые Зарубежные сериалы и Русские сериалы 2013, 2014, 2015 годов. Оставайтесь с нами, качайте любимые фильмы, игры, сериалы, книги и музыку.