img image001 image001 image001 image001 image001 image001 image001 image001 image001 image001 image001 image001 image001 image001 image001

Planets Sun Sun Sun
Статистика раздачи
Автор: Nickolas3434 | Размер: 744.3 МБ | Добавлен: 06 мар 2015
Раздают: 10    Качают: 3
Скачать торрент
Скачать торрент
Описание торрента

СообщениеДобавлено: 06 мар 2015 

Страна: СССР
Производство: Мосфильм, ЦОКС

Жанр: драма, военный
Год выпуска: 1942
Продолжительность: 01:25:33

Перевод: Не требуется
Cубтитры: нет
Оригинальная аудиодорожка: русский

Режиссер: Иван Пырьев

В ролях:
Василий Ванин, Михаил Астангов, Марина Ладынина, Михаил Жаров, Михаил Кузнецов, Борис Пославский, Виктор Кулаков, Николай Боголюбов, Анатолий Алексеев, Инна Федорова...

Описание:
Снят фильм во время войны и конечно, его основной задачей было поднять дух советских людей. Немцы наступают. Секретарь райкома Кочет руководит эвакуацией и уничтожением того, что нет возможности вывезти. Товарищ Ротман отказывается взрывать электростанцию, и Кочет взрывает ее лично. Под его руководством организуется партизанский отряд. С партизанами уходят связистка Наташа (Ладынина), внук (Кузнецов) с дедом (Жаров), уже трижды воевавшим с немцами, и многие другие. Начинается партизанская война: взрываются мосты, летят под откосы поезда. У немцев отбивают пленного "советского" танкиста, которого немцы заслали как шпиона. Он делает вид, что учится у Наташи работать на радиопередатчике, а сам передает данные о месторасположении отряда...





Источник: DVD5 R5
Качество видео: DVDRip
Формат видео: AVI

Видео: 640x480 (4:3), 25 fps, XviD ~ 1079 kbps avg, 0.140 bit/pixel
Аудио: 48 kHz, Dolby Digital AC3 2.0, 192 kbps

Раздача от:
Общее
Полное имя : Sekretar.raykoma.1942.DVDRip-745_[New-team]_by_AVP_Studio.avi
Формат : AVI
Формат/Информация : Audio Video Interleave
Размер файла : 744 Мбайт
Продолжительность : 1 ч. 25 м.
Общий поток : 1216 Кбит/сек
Программа кодирования : VirtualDubModRus 1.5.10.2 (build 2542/release)
Библиотека кодирования : VirtualDubMod build 2542/release

Видео
Идентификатор : 0
Формат : MPEG-4 Visual
Профиль формата : Advanced Simple@L5
Параметр BVOP формата : 1
Параметр QPel формата : Нет
Параметр GMC формата : Без точки перехода
Параметр матрицы формата : Выборочная
Идентификатор кодека : XVID
Идентификатор кодека/Подсказка : XviD
Продолжительность : 1 ч. 25 м.
Битрейт : 1079 Кбит/сек
Ширина : 640 пикселей
Высота : 480 пикселей
Соотношение сторон : 4:3
Частота кадров : 25,000 кадров/сек
Цветовое пространство : YUV
Субдискретизация насыщенности : 4:2:0
Битовая глубина : 8 бит
Тип развёртки : Прогрессивная
Метод сжатия : С потерями
Бит/(Пиксели*Кадры) : 0.140
Размер потока : 660 Мбайт (89%)
Библиотека кодирования : XviD 73

Аудио
Идентификатор : 1
Формат : MPEG Audio
Версия формата : Version 1
Профиль формата : Layer 3
Идентификатор кодека : 55
Идентификатор кодека/Подсказка : MP3
Продолжительность : 1 ч. 25 м.
Вид битрейта : Постоянный
Битрейт : 128 Кбит/сек
Каналы : 2 канала
Частота : 48,0 КГц
Метод сжатия : С потерями
Размер потока : 78,3 Мбайт (11%)
Выравнивание : Соединение по промежуткам
Продолжительность промежутка : 40 мс. (1,00 видеокадр)
Время предзагрузки промежутка : 504 мс.
Библиотека кодирования : LAME3.99r
Настройки программы : -m s -V 4 -q 2 -lowpass 17 -b 128





   Похожие торренты   Торрент   Размер 
В этой теме нет новых непрочитанных сообщений. Секретарь райкома (1942) DVDRip от New-Team

2 | 5

1.46 ГБ

В этой теме нет новых непрочитанных сообщений. Секретарь райкома (1942) DVDRip-AVC от New-Team

307 | 7

1.46 ГБ

В этой теме нет новых непрочитанных сообщений. Секретарь райкома (1942) DVDRip

36 | 5

699.21 МБ

В этой теме нет новых непрочитанных сообщений. Секретарь райкома (1942) DVDRip от NovaLan

8 | 2

1.37 ГБ

В этой теме нет новых непрочитанных сообщений. Неуловимый Ян (1942) DVDRip от New-Team

7 | 6

744.79 МБ

В этой теме нет новых непрочитанных сообщений. Неуловимый Ян (1942) DVDRip-AVC от New-Team

14 | 17

744.51 МБ

В этой теме нет новых непрочитанных сообщений. Бой под Соколом (1942) DVDRip-AVC от New-Team

16 | 6

744.52 МБ




Вы не можете начинать темы
Вы не можете отвечать на сообщения
Вы не можете редактировать свои сообщения
Вы не можете удалять свои сообщения
Вы не можете добавлять вложения

Перейти:  
Для Мосгорсуда, Роскомнадзора и рекламодателей: mosgorsud-torrent[собачка]yandex.ru
 Вход
ppkBB3cker v.2 © 2008-2014 @ PPK
[ Time : 0.149s | 15 Queries | GZIP : Off ]

Торрент трекер RUTOR.IN, Не можете зайти на rutor.org? Какой новый адрес рутор? Какое зеркало рутор? Не работает rutor.org и зеркала? Тогда наш торрент специально для вас. Rutor.in неофициальное зеркало rutor. В случае если у Вас заблокирован rutor или вдруг Вы не можете на него зайти, то Вы без труда сможете скачать бесплатно и без рекламы последние новинки кино, игр, сериалов и прочего у нас, на Rutor.in. Не нужно использовать прокси, чтобы зайти на рутор, достаточно воспользоваться нашим ресурсом. Все новые фильмы, игры, сериалы, книги и музыка за 2013 и 2014 годы через торрент бесплатно. Скачивайте фильмы в хорошем качестве, игры для пк, xbox, playstation без регистрации. У нас вы найдете новые Зарубежные сериалы и Русские сериалы 2013, 2014, 2015 годов. Оставайтесь с нами, качайте любимые фильмы, игры, сериалы, книги и музыку.