img image001 image001 image001 image001 image001 image001 image001 image001 image001 image001 image001 image001 image001 image001 image001

Planets Sun Sun Sun
Статистика раздачи
Автор: Nickolas3434 | Размер: 1.76 ГБ | Добавлен: 06 мар 2015
Раздают: 83    Качают: 10
Скачать торрент
Скачать торрент
Описание торрента

СообщениеДобавлено: 06 мар 2015 

Информация о фильме
Оригинальное название: Белорусский вокзал
Год выхода: 1971
Жанр: Драма
Режиссер: Андрей Смирнов
В ролях: Алексей Глазырин, Евгений Леонов, Анатолий Папанов, Всеволод Сафонов, Нина Ургант, Раиса Куркина, Любовь Соколова, Маргарита Терехова, Никифор Колофидин, Юрий Орлов, Николай Волков мл., Александр Январёв, Валентина Ананьина, Людмила Аринина, Юрий Визбор, Юрий Волынцев, Владимир Грамматиков, Кира Жаркова, Валерий Малышев, Виктор Проскурин, Федор Селезнёв, Елена Скачкова, Николай Граббе, Светлана Данильченко, Петр Морозов, Юрий Будилов, Сергей Байдин, Евгений Николаев, Виктор Разоренов, Станислав Бородокин, Николай Смирнов
О фильме:
Герои фильма расстались на Белорусском вокзале летом 1945-го. Спустя четверть века они встречаются на похоронах боевого товарища. В их душах с новой силой оживает пережитое. Время не властно над их памятью: ветераны сохранили верность фронтовой дружбе, способность жертвовать собой, неистребимую любовь к жизни.



Страна: СССР, Мосфильм
Продолжительность: 01:35:16
Язык: Русский
Файл
Кодек: H.264
Качество: HDTVRip (AVC)
Видео: MPEG-4 AVC, 2190 Кбит/с, 1024x436
Звук: AC3, 6 ch, 448 Кбит/с

Видео
Идентификатор : 1
Формат : AVC
Формат/Информация : Advanced Video Codec
Профиль формата : High@L4.1
Параметр CABAC формата : Да
Параметр ReFrames формата : 8 кадров
Идентификатор кодека : V_MPEG4/ISO/AVC
Продолжительность : 1 ч. 35 м.
Битрейт : 2190 Кбит/сек
Ширина : 1024 пикс.
Высота : 436 пикс.
Соотношение сторон : 2,35:1
Частота кадров : 25,000 кадр/сек
Цветовое пространство : YUV
Подвыборка цветности : 4:2:0
Битовая глубина : 8 бит
Тип развёртки : Прогрессивная
Бит/(Пиксели*Кадры) : 0.196
Размер потока : 1,42 Гбайт (81%)
Заголовок : Rip by Enigma-Vladislav71
Библиотека кодирования : x264 core 142 r2431 ac76440
Настройки программы : cabac=1 / ref=8 / deblock=1:-2:-2 / analyse=0x3:0x133 / me=umh / subme=11 / psy=1 / psy_rd=1.00:0.00 / mixed_ref=1 / me_range=48 / chroma_me=1 / trellis=2 / 8x8dct=1 / cqm=0 / deadzone=21,11 / fast_pskip=0 / chroma_qp_offset=-2 / threads=3 / lookahead_threads=1 / sliced_threads=0 / nr=0 / decimate=0 / interlaced=0 / bluray_compat=0 / constrained_intra=0 / bframes=8 / b_pyramid=2 / b_adapt=2 / b_bias=0 / direct=3 / weightb=1 / open_gop=0 / weightp=2 / keyint=250 / keyint_min=25 / scenecut=40 / intra_refresh=0 / rc_lookahead=40 / rc=2pass / mbtree=0 / bitrate=2190 / ratetol=1.0 / qcomp=0.60 / qpmin=10 / qpmax=51 / qpstep=4 / cplxblur=20.0 / qblur=0.5 / vbv_maxrate=62500 / vbv_bufsize=78125 / nal_hrd=none / filler=0 / ip_ratio=1.40 / pb_ratio=1.30 / aq=2:1.00
Язык : English

Аудио
Идентификатор : 2
Формат : AC-3
Формат/Информация : Audio Coding 3
Расширение режима : CM (complete main)
Идентификатор кодека : A_AC3
Продолжительность : 1 ч. 35 м.
Вид битрейта : Постоянный
Битрейт : 448 Кбит/сек
Каналы : 6 каналов
Расположение каналов : Front: L C R, Side: L R, LFE
Частота : 48,0 КГц
Битовая глубина : 16 бит
Метод сжатия : С потерями
Размер потока : 305 Мбайт (17%)
Язык : Russian


Релиз от:

Авторы релиза:



   Похожие торренты   Торрент   Размер 
В этой теме нет новых непрочитанных сообщений. Белорусский вокзал (1971) HDTVRip от ExKinoRay

30 | 5

1.46 ГБ

В этой теме нет новых непрочитанных сообщений. Белорусский вокзал (1971) WEBRip-AVC от ExKinoRay

26 | 13

1.46 ГБ

В этой теме нет новых непрочитанных сообщений. Белорусский вокзал (1971) BDRip-AVC

274 | 23

1.77 ГБ

В этой теме нет новых непрочитанных сообщений. Белорусский вокзал (1971) Blu-ray 1080p

102 | 10

20.82 ГБ

В этой теме нет новых непрочитанных сообщений. Белорусский вокзал (1971) BDRip

188 | 35

745.15 МБ

В этой теме нет новых непрочитанных сообщений. Белорусский вокзал (1971) DVDRip-AVC от Youtracker

16 | 5

1.46 ГБ

В этой теме нет новых непрочитанных сообщений. Белорусский вокзал (1971) BDRip 720p

137 | 11

5.31 ГБ




Вы не можете начинать темы
Вы не можете отвечать на сообщения
Вы не можете редактировать свои сообщения
Вы не можете удалять свои сообщения
Вы не можете добавлять вложения

Перейти:  
Для Мосгорсуда, Роскомнадзора и рекламодателей: mosgorsud-torrent[собачка]yandex.ru
 Вход
ppkBB3cker v.2 © 2008-2014 @ PPK
[ Time : 0.042s | 17 Queries | GZIP : Off ]

Торрент трекер RUTOR.IN, Не можете зайти на rutor.org? Какой новый адрес рутор? Какое зеркало рутор? Не работает rutor.org и зеркала? Тогда наш торрент специально для вас. Rutor.in неофициальное зеркало rutor. В случае если у Вас заблокирован rutor или вдруг Вы не можете на него зайти, то Вы без труда сможете скачать бесплатно и без рекламы последние новинки кино, игр, сериалов и прочего у нас, на Rutor.in. Не нужно использовать прокси, чтобы зайти на рутор, достаточно воспользоваться нашим ресурсом. Все новые фильмы, игры, сериалы, книги и музыка за 2013 и 2014 годы через торрент бесплатно. Скачивайте фильмы в хорошем качестве, игры для пк, xbox, playstation без регистрации. У нас вы найдете новые Зарубежные сериалы и Русские сериалы 2013, 2014, 2015 годов. Оставайтесь с нами, качайте любимые фильмы, игры, сериалы, книги и музыку.