img image001 image001 image001 image001 image001 image001 image001 image001 image001 image001 image001 image001 image001 image001 image001 image001

Planets Sun Sun Sun
Статистика раздачи
Автор: Nickolas3434 | Размер: 1.74 ГБ | Добавлен: 06 мар 2015
Раздают: 957    Качают: 34
Скачать торрент
Скачать торрент
Описание торрента

СообщениеДобавлено: 06 мар 2015 

Информация о фильме

Оригинальное название: Невидимки
Год выпуска: 2013
Жанр: Комедия, фантастика
Выпущено: Россия
Режиссер: Сергей Комаров
В ролях: Илья Любимов, Екатерина Гусева, Гоша Куценко, Андрей Мерзликин, Ирина Розанова, Иван Чуваткин, Вера Борисенкова, Зураб Гурцкая, Владимир Дыховичный, Петр Винс
О фильме: В канун Нового года удивительное событие навсегда меняет жизнь главного героя: он становится невидимкой! Правда, понимает он это не сразу, так как уже привык к тому, что его никто не замечает и не принимает всерьез. Очень быстро войдя во вкус новой жизни и своих супер способностей, он вдруг обнаруживает, что он такой не один!

Файл

Качество: WEB-DLRip (AVC)
Видео: MPEG-4 AVC, 2385 Кбит/с, 1024x428, 24 кадр/с
Аудио: AC3, 6 ch, 384 Кбит/с
Размер: 1.74 ГБ
Продолжительность: 01:29:52
Язык: Русский
Озвучивание - (iTunes Russia)
Сохранены оригинальные чаптеры как на исходном WEB-DL.
Общее
Уникальный идентификатор : 246052169430709491437406151651980084788 (0xB91BEC91BD3FA0BCA922776E1CCA0634)
Полное имя : D:ЗагрузкиNevidimki.2013.x264.WEB-DLRip.(AVC).ExKinoRay).mkv
Формат : Matroska
Версия формата : Version 2
Размер файла : 1,74 Гбайт
Продолжительность : 1 ч. 29 м.
Общий поток : 2770 Кбит/сек
Название фильма : Невидимки.2013.Rip by: ollan
Дата кодирования : UTC 2015-03-06 05:50:37
Программа кодирования : mkvmerge v5.6.0 ('Kenya Kane') built on May 27 2012 16:44:04
Библиотека кодирования : libebml v1.2.3 + libmatroska v1.3.0

Видео
Идентификатор : 1
Формат : AVC
Формат/Информация : Advanced Video Codec
Профиль формата : High@L4.1
Параметр CABAC формата : Да
Параметр ReFrames формата : 9 кадров
Идентификатор кодека : V_MPEG4/ISO/AVC
Продолжительность : 1 ч. 29 м.
Битрейт : 2385 Кбит/сек
Ширина : 1024 пикселя
Высота : 428 пикселей
Соотношение сторон : 2,40:1
Режим частоты кадров : Постоянный
Частота кадров : 24,000 кадра/сек
Цветовое пространство : YUV
Субдискретизация насыщенности : 4:2:0
Битовая глубина : 8 бит
Тип развёртки : Прогрессивная
Бит/(Пиксели*Кадры) : 0.227
Размер потока : 1,46 Гбайт (84%)
Библиотека кодирования : x264 core 125 r2200 999b753
Настройки программы : cabac=1 / ref=9 / deblock=1:-3:-3 / analyse=0x3:0x133 / me=umh / subme=11 / psy=1 / psy_rd=1.00:0.10 / mixed_ref=1 / me_range=32 / chroma_me=1 / trellis=2 / 8x8dct=1 / cqm=0 / deadzone=21,11 / fast_pskip=0 / chroma_qp_offset=-3 / threads=12 / lookahead_threads=2 / sliced_threads=0 / nr=0 / decimate=0 / interlaced=0 / bluray_compat=0 / constrained_intra=0 / bframes=9 / b_pyramid=2 / b_adapt=2 / b_bias=0 / direct=3 / weightb=1 / open_gop=0 / weightp=2 / keyint=240 / keyint_min=23 / scenecut=40 / intra_refresh=0 / rc=2pass / mbtree=0 / bitrate=2385 / ratetol=1.0 / qcomp=0.60 / qpmin=0 / qpmax=69 / qpstep=4 / cplxblur=20.0 / qblur=0.5 / ip_ratio=1.40 / pb_ratio=1.30 / aq=1:1.00
Язык : Russian
Default : Да
Forced : Нет

Аудио
Идентификатор : 2
Формат : AC-3
Формат/Информация : Audio Coding 3
Расширение режима : CM (complete main)
Параметр Endianness формата : Big
Идентификатор кодека : A_AC3
Продолжительность : 1 ч. 29 м.
Вид битрейта : Постоянный
Битрейт : 384 Кбит/сек
Каналы : 6 каналов
Расположение каналов : Front: L C R, Side: L R, LFE
Частота : 48,0 КГц
Битовая глубина : 16 бит
Метод сжатия : С потерями
Размер потока : 247 Мбайт (14%)
Язык : Russian
Default : Нет
Forced : Нет

Меню
00:00:00.000 : ru:Chapter 01
00:06:16.000 : ru:Chapter 02
00:11:55.000 : ru:Chapter 03
00:17:14.000 : ru:Chapter 04
00:22:13.000 : ru:Chapter 05
00:27:47.000 : ru:Chapter 06
00:32:48.000 : ru:Chapter 07
00:39:04.000 : ru:Chapter 08
00:45:59.000 : ru:Chapter 09
00:53:02.000 : ru:Chapter 10
00:59:57.000 : ru:Chapter 11
01:05:37.000 : ru:Chapter 12
01:11:00.000 : ru:Chapter 13
01:17:01.000 : ru:Chapter 14
01:23:25.000 : ru:Chapter 15








Релиз от: Rip by:



   Похожие торренты   Торрент   Размер 
В этой теме нет новых непрочитанных сообщений. Окулус / Oculus (2013) WEB-DLRip-AVC от ExKinoRay | iTunes Russia

3515 | 662

1.71 ГБ

В этой теме нет новых непрочитанных сообщений. Невидимки (2013) WEB-DLRip | iTunes

1223 | 37

699.51 МБ

В этой теме нет новых непрочитанных сообщений. Невидимки (2013) WEB-DLRip | iTunes

7368 | 247

1.37 ГБ

В этой теме нет новых непрочитанных сообщений. Бармен (2015) WEB-DLRip-AVC от ExKinoRay | iTunes Russia

808 | 22

1.71 ГБ

В этой теме нет новых непрочитанных сообщений. Одноклассницы (2016) WEB-DLRip-AVC от ExKinoRay | iTunes Russia

1957 | 62

744.16 МБ

В этой теме нет новых непрочитанных сообщений. Училка (2015) WEB-DLRip-AVC от ExKinoRay | iTunes Russia

36 | 0

2.14 ГБ

В этой теме нет новых непрочитанных сообщений. Богатырша (2015) WEB-DLRip-AVC от ExKinoRay | iTunes Russia

1860 | 116

1.65 ГБ




Вы не можете начинать темы
Вы не можете отвечать на сообщения
Вы не можете редактировать свои сообщения
Вы не можете удалять свои сообщения
Вы не можете добавлять вложения

Перейти:  
 Вход
ppkBB3cker v.2 © 2008-2014 @ PPK
[ Time : 0.065s | 16 Queries | GZIP : Off ]

cron