img image001 image001 image001 image001 image001 image001 image001 image001 image001 image001 image001 image001 image001 image001 image001

Planets Sun Sun Sun
Статистика раздачи
Автор: Nickolas3434 | Размер: 6.5 ГБ | Добавлен: 09 мар 2015
Раздают: 104    Качают: 18
Скачать торрент
Скачать торрент
Описание торрента

СообщениеДобавлено: 09 мар 2015 

Оригинальное название: Самая обаятельная и привлекательная
Год выпуска: 1985
Жанр: Лирическая комедия
Выпущено: СССР, Мосфильм
Режиссер: Геральд Бежанов
В ролях: Ирина Муравьёва, Татьяна Васильева, Александр Абдулов, Леонид Куравлёв, Михаил Кокшенов, Людмила Иванова, Лариса Удовиченко, Владимир Носик, Александр Ширвиндт, Лев Перфилов, Любовь Соколова, Вероника Изотова, Виктор Ильичёв, Гурам Абесадзе, Виктор Филиппов, Людмила Карауш, Георгий Мартиросян, Владимир Мышкин, Яков Саркисов, Вера Сотникова, Игорь Ясулович, Екатерина Куравлева, Геральд Бежанов, Анатолий Эйрамджан
О фильме: После встречи двух школьных подруг Нади и Сусанны одна из них решает помочь другой найти счастье в личной жизни. Сусанна предлагает Наде различные методики с одной единственной целью - ее подруга должна начать нравиться другим мужчинам и, наконец, выйти замуж.

Релиз от:
Качество: HDTV (1080i)
Видео: MPEG-4 AVC, 11,1 Мбит/с, 1920x1080
Аудио: MP2, 2 ch, 192 Кбит/с
Продолжительность: 01:18:19
Язык: Русский
Общее
Идентификатор : 1 (0x1)
Полное имя : C:Самая.обаятельная.и.привлекательная.(1985).HDTV.1080i.ts
Формат : MPEG-TS
Размер файла : 6,50 Гбайт
Продолжительность : 1 ч. 18 м.
Режим общего битрейта : Переменный
Общий поток : 11,9 Мбит/сек
Видео
Идентификатор : 1603 (0x643)
Идентификатор меню : 603 (0x25B)
Формат : AVC
Формат/Информация : Advanced Video Codec
Профиль формата : High@L4.0
Параметр CABAC формата : Да
Параметр ReFrames формата : 3 кадра
Параметр GOP формата : M=4, N=36
Идентификатор кодека : 27
Продолжительность : 1 ч. 18 м.
Битрейт : 11,1 Мбит/сек
Ширина : 1920 пикселей
Высота : 1080 пикселей
Соотношение сторон : 16:9
Частота кадров : 25,000 кадров/сек
Стандарт вещания : Component
Цветовое пространство : YUV
Субдискретизация насыщенности : 4:2:0
Битовая глубина : 8 бит
Тип развёртки : Чересстрочная
Порядок развёртки : Верхнее поле первое
Бит/(Пиксели*Кадры) : 0.214
Размер потока : 6,07 Гбайт (93%)
Основные цвета : BT.709
Характеристики трансфера : BT.709
Коэффициенты матрицы : BT.709
colour_range : Limited
Аудио
Идентификатор : 2603 (0xA2B)
Идентификатор меню : 603 (0x25B)
Формат : MPEG Audio
Версия формата : Version 1
Профиль формата : Layer 2
Идентификатор кодека : 3
Продолжительность : 1 ч. 18 м.
Вид битрейта : Постоянный
Битрейт : 192 Кбит/сек
Каналы : 2 канала
Частота : 48,0 КГц
Метод сжатия : С потерями
Размер потока : 108 Мбайт (2%)
Язык : Russian




   Похожие торренты   Торрент   Размер 
В этой теме нет новых непрочитанных сообщений. Самая обаятельная и привлекательная (1985) DVDRip

82 | 24

746.03 МБ

В этой теме нет новых непрочитанных сообщений. Самая обаятельная и привлекательная (1985) DVDRip

127 | 5

1.37 ГБ

В этой теме нет новых непрочитанных сообщений. Самая обаятельная и привлекательная (1985) HDTVRip

93 | 14

1.37 ГБ

В этой теме нет новых непрочитанных сообщений. Самая обаятельная и привлекательная (1985) DVDRip | Реставрация

127 | 11

1.36 ГБ

В этой теме нет новых непрочитанных сообщений. Самая обаятельная и привлекательная (1985) HDTVRip 720р

53 | 7

2.76 ГБ

В этой теме нет новых непрочитанных сообщений. Самая обаятельная и привлекательная (1985) HDTVRip от Шкипер

97 | 46

744.19 МБ

В этой теме нет новых непрочитанных сообщений. Самая обаятельная и привлекательная (1985) DVDRip | Реставрация

2122 | 67

1.45 ГБ




Вы не можете начинать темы
Вы не можете отвечать на сообщения
Вы не можете редактировать свои сообщения
Вы не можете удалять свои сообщения
Вы не можете добавлять вложения

Перейти:  
Для Мосгорсуда, Роскомнадзора и рекламодателей: mosgorsud-torrent[собачка]yandex.ru
 Вход
ppkBB3cker v.2 © 2008-2014 @ PPK
[ Time : 0.572s | 15 Queries | GZIP : Off ]

Торрент трекер RUTOR.IN, Не можете зайти на rutor.org? Какой новый адрес рутор? Какое зеркало рутор? Не работает rutor.org и зеркала? Тогда наш торрент специально для вас. Rutor.in неофициальное зеркало rutor. В случае если у Вас заблокирован rutor или вдруг Вы не можете на него зайти, то Вы без труда сможете скачать бесплатно и без рекламы последние новинки кино, игр, сериалов и прочего у нас, на Rutor.in. Не нужно использовать прокси, чтобы зайти на рутор, достаточно воспользоваться нашим ресурсом. Все новые фильмы, игры, сериалы, книги и музыка за 2013 и 2014 годы через торрент бесплатно. Скачивайте фильмы в хорошем качестве, игры для пк, xbox, playstation без регистрации. У нас вы найдете новые Зарубежные сериалы и Русские сериалы 2013, 2014, 2015 годов. Оставайтесь с нами, качайте любимые фильмы, игры, сериалы, книги и музыку.