img image001 image001 image001 image001 image001 image001 image001 image001 image001 image001 image001 image001 image001 image001 image001

Planets Sun Sun Sun
Статистика раздачи
Автор: Nickolas3434 | Размер: 744.32 МБ | Добавлен: 09 мар 2015
Раздают: 424    Качают: 12
Скачать торрент
Скачать торрент
Описание торрента

СообщениеДобавлено: 09 мар 2015 

Информация о фильме
Название: Кремень
Год выхода: 2007
Жанр: Драма, криминал
Режиссёр: Алексей Мизгирев
В ролях: Евгений Антропов, Дмитрий Куличков, Анастасия Безбородова, Сергей Шеховцов, Карэн Бадалов, Александр Голубев, Татьяна Насташевская, Олег Васильков, Сахат Дурсунов, Александр Ратников, Вероника Ким, Олег Билик, Алексей Агрызков, Виктор Алферов, Павел Мирзоев
О фильме: Отслужив в армии, Антон Ремизов, паренек из провинциального российского городка Альметьевска, приезжает в Москву. Весь мир покорить Антон, быть может, пока еще не планирует, но в столице зацепиться не прочь. Например, за альметьевскую соседку Зину, отец которой открыл в Москве автомастерскую… Зина же дает Антону от ворот поворот, и тогда он находит взаимопонимание у сотрудников органов правопорядка. Так Антон Ремизов становится московским милиционером...

Выпущено: Россия, Кинокомпания CTB
Продолжительность: 01:22:02
Перевод: Не требуется (русский)
Файл
Качество: DVDRip [Исходник: DVD-9]
Видео: XviD, 1131 Кбит/с, 672x368 (16:9), 25 кадр/с
Аудио: Русский, MP3, 48000 Гц, 128 Кбит/с, 2 канала (Стерео) - Оригинал

General
Complete name : Kremen'.2007.DVDRip.745MB.avi
Format : AVI
Format/Info : Audio Video Interleave
File size : 744 MiB
Duration : 1h 22mn
Overall bit rate : 1 269 Kbps
Writing application : VirtualDubMod 1.5.10.3 (build 2550/release)
Writing library : VirtualDubMod build 2550/release
Copyright : rip by ivandubskoj
Video
ID : 0
Format : MPEG-4 Visual
Format profile : Advanced Simple@L5
Format settings, BVOP : 2
Format settings, QPel : No
Format settings, GMC : No warppoints
Format settings, Matrix : Custom
Codec ID : XVID
Codec ID/Hint : XviD
Duration : 1h 22mn
Bit rate : 1 131 Kbps
Width : 672 pixels
Height : 368 pixels
Display aspect ratio : 16:9
Frame rate : 25.000 fps
Color space : YUV
Chroma subsampling : 4:2:0
Bit depth : 8 bits
Scan type : Progressive
Compression mode : Lossy
Bits/(Pixel*Frame) : 0.183
Stream size : 664 MiB (89%)
Writing library : XviD 73
Audio
ID : 1
Format : MPEG Audio
Format version : Version 1
Format profile : Layer 3
Codec ID : 55
Codec ID/Hint : MP3
Duration : 1h 22mn
Bit rate mode : Constant
Bit rate : 128 Kbps
Channel(s) : 2 channels
Sampling rate : 48.0 KHz
Compression mode : Lossy
Stream size : 75.1 MiB (10%)
Alignment : Aligned on interleaves
Interleave, duration : 40 ms (1.00 video frame)
Interleave, preload duration : 504 ms
Writing library : LAME3.99r
Encoding settings : -m s -V 4 -q 0 -lowpass 17 -b 128




Автор рипа - ivandubskoj



   Похожие торренты   Торрент   Размер 
В этой теме нет новых непрочитанных сообщений. Кремень (2007) DVDRip

257 | 20

1.37 ГБ

В этой теме нет новых непрочитанных сообщений. Кремень (2007) DVDRip-AVC от КинозалSAT

66 | 6

1.36 ГБ

В этой теме нет новых непрочитанных сообщений. Откройте, Дед Мороз! (2007) DVDRip от ivandubskoj | Лицензия

94 | 25

746.2 МБ

В этой теме нет новых непрочитанных сообщений. Слуга государев (2007) DVDRip от ivandubskoj | Полная версия | Лицензия

546 | 46

2.18 ГБ

В этой теме нет новых непрочитанных сообщений. Кремень. Освобождение [01-04 из 04] (2013) DVDRip от New-Team | лицензия

758 | 129

3.1 ГБ

В этой теме нет новых непрочитанных сообщений. Кремень. Освобождение [01-04 из 04] (2013) DVDRip-AVC от New-Team | лицензия

411 | 73

3.1 ГБ

В этой теме нет новых непрочитанных сообщений. Код апокалипсиса (2007) Blu-Ray Remux 1080p от ivandubskoj | Лицензия

17 | 4

20.51 ГБ




Вы не можете начинать темы
Вы не можете отвечать на сообщения
Вы не можете редактировать свои сообщения
Вы не можете удалять свои сообщения
Вы не можете добавлять вложения

Перейти:  
Для Мосгорсуда, Роскомнадзора и рекламодателей: mosgorsud-torrent[собачка]yandex.ru
 Вход
ppkBB3cker v.2 © 2008-2014 @ PPK
[ Time : 1.095s | 15 Queries | GZIP : Off ]

Торрент трекер RUTOR.IN, Не можете зайти на rutor.org? Какой новый адрес рутор? Какое зеркало рутор? Не работает rutor.org и зеркала? Тогда наш торрент специально для вас. Rutor.in неофициальное зеркало rutor. В случае если у Вас заблокирован rutor или вдруг Вы не можете на него зайти, то Вы без труда сможете скачать бесплатно и без рекламы последние новинки кино, игр, сериалов и прочего у нас, на Rutor.in. Не нужно использовать прокси, чтобы зайти на рутор, достаточно воспользоваться нашим ресурсом. Все новые фильмы, игры, сериалы, книги и музыка за 2013 и 2014 годы через торрент бесплатно. Скачивайте фильмы в хорошем качестве, игры для пк, xbox, playstation без регистрации. У нас вы найдете новые Зарубежные сериалы и Русские сериалы 2013, 2014, 2015 годов. Оставайтесь с нами, качайте любимые фильмы, игры, сериалы, книги и музыку.