img image001 image001 image001 image001 image001 image001 image001 image001 image001 image001 image001 image001 image001 image001 image001

Planets Sun Sun Sun
Статистика раздачи
Автор: Nickolas3434 | Размер: 743.4 МБ | Добавлен: 09 мар 2015
Раздают: 20    Качают: 31
Скачать торрент
Скачать торрент
Описание торрента

СообщениеДобавлено: 09 мар 2015 

Страна: СССР
Производство: Мосфильм, ЦОКС
Жанр: драма, военный
Год выпуска: 1943
Продолжительность: 01:27:09
Перевод: Не требуется
Cубтитры: нет
Оригинальная аудиодорожка: русский
Режиссер: Борис Иванов, Александр Столпер
В ролях:
Борис Блинов, Валентина Серова, Лев Свердлин, Михаил Названов, Нина Зорская, Елена Тяпкина, Андрей Апсолон, Людмила Глазова, Павел Герага, Антон Мартынов...
Описание:
Отечественная война. Оказавшись в тылу врага, Ермолов приказывает военному корреспонденту Вайнштейну доставить в частьпленку с заснятыми аэродромами врага и записку для жены. Отойдя от лесной землянки, где остался Ермолов, Вайнштейн слышит короткую перестрелку. Позже он уверенно скажет Лизе о смерти Ермолова, но она не поверит. И каждый день Лиза будет ждать мужа, уверенная в том, что завтра они увидятся...





Источник: DVD5 R5
Качество видео: DVDRip
Формат видео: AVI
Видео: 640x480 (4:3), 25 fps, XviD ~ 1055 kbps avg, 0.137 bit/pixel
Аудио: 48 kHz, MP3 2.0, 128 kbps
Раздача от:
Общее
Полное имя : Jdi.menya.1943.DVDRip-745_[New-team]_by_AVP_Studio.avi
Формат : AVI
Формат/Информация : Audio Video Interleave
Размер файла : 743 Мбайт
Продолжительность : 1 ч. 27 м.
Общий поток : 1193 Кбит/сек
Программа кодирования : VirtualDubModRus 1.5.10.2 (build 2542/release)
Библиотека кодирования : VirtualDubMod build 2542/release
Видео
Идентификатор : 0
Формат : MPEG-4 Visual
Профиль формата : Advanced Simple@L5
Параметр BVOP формата : 1
Параметр QPel формата : Нет
Параметр GMC формата : Без точки перехода
Параметр матрицы формата : Выборочная
Идентификатор кодека : XVID
Идентификатор кодека/Подсказка : XviD
Продолжительность : 1 ч. 27 м.
Битрейт : 1055 Кбит/сек
Ширина : 640 пикселей
Высота : 480 пикселей
Соотношение сторон : 4:3
Частота кадров : 25,000 кадров/сек
Цветовое пространство : YUV
Субдискретизация насыщенности : 4:2:0
Битовая глубина : 8 бит
Тип развёртки : Прогрессивная
Метод сжатия : С потерями
Бит/(Пиксели*Кадры) : 0.137
Размер потока : 658 Мбайт (88%)
Библиотека кодирования : XviD 73
Аудио
Идентификатор : 1
Формат : MPEG Audio
Версия формата : Version 1
Профиль формата : Layer 3
Идентификатор кодека : 55
Идентификатор кодека/Подсказка : MP3
Продолжительность : 1 ч. 27 м.
Вид битрейта : Постоянный
Битрейт : 128 Кбит/сек
Каналы : 2 канала
Частота : 48,0 КГц
Метод сжатия : С потерями
Размер потока : 79,8 Мбайт (11%)
Выравнивание : Соединение по промежуткам
Продолжительность промежутка : 40 мс. (1,00 видеокадр)
Время предзагрузки промежутка : 504 мс.
Библиотека кодирования : LAME3.99r
Настройки программы : -m s -V 4 -q 2 -lowpass 17 -b 128





   Похожие торренты   Торрент   Размер 
В этой теме нет новых непрочитанных сообщений. Во имя Родины (1943) DVDRip от New-Team

17 | 16

1.09 ГБ

В этой теме нет новых непрочитанных сообщений. Радуга (1943) DVDRip от New-Team

17 | 9

1.46 ГБ

В этой теме нет новых непрочитанных сообщений. Актриса (1943) DVDRip-AVC от New-Team

6 | 20

1.09 ГБ

В этой теме нет новых непрочитанных сообщений. Фронт (1943) DVDRip от New-Team

24 | 7

1.46 ГБ

В этой теме нет новых непрочитанных сообщений. Сталинград (1943) DVDRip-AVC от New-Team

180 | 11

1.09 ГБ

В этой теме нет новых непрочитанных сообщений. Жди меня (1943) DVDRip от New-Team

12 | 8

1.45 ГБ

В этой теме нет новых непрочитанных сообщений. Фронт (1943) DVDRip от New-Team

13 | 8

753.34 МБ




Вы не можете начинать темы
Вы не можете отвечать на сообщения
Вы не можете редактировать свои сообщения
Вы не можете удалять свои сообщения
Вы не можете добавлять вложения

Перейти:  
Для Мосгорсуда, Роскомнадзора и рекламодателей: mosgorsud-torrent[собачка]yandex.ru
 Вход
ppkBB3cker v.2 © 2008-2014 @ PPK
[ Time : 0.131s | 17 Queries | GZIP : Off ]

Торрент трекер RUTOR.IN, Не можете зайти на rutor.org? Какой новый адрес рутор? Какое зеркало рутор? Не работает rutor.org и зеркала? Тогда наш торрент специально для вас. Rutor.in неофициальное зеркало rutor. В случае если у Вас заблокирован rutor или вдруг Вы не можете на него зайти, то Вы без труда сможете скачать бесплатно и без рекламы последние новинки кино, игр, сериалов и прочего у нас, на Rutor.in. Не нужно использовать прокси, чтобы зайти на рутор, достаточно воспользоваться нашим ресурсом. Все новые фильмы, игры, сериалы, книги и музыка за 2013 и 2014 годы через торрент бесплатно. Скачивайте фильмы в хорошем качестве, игры для пк, xbox, playstation без регистрации. У нас вы найдете новые Зарубежные сериалы и Русские сериалы 2013, 2014, 2015 годов. Оставайтесь с нами, качайте любимые фильмы, игры, сериалы, книги и музыку.