img image001 image001 image001 image001 image001 image001 image001 image001 image001 image001 image001 image001 image001 image001 image001

Planets Sun Sun Sun
Статистика раздачи
Автор: Nickolas3434 | Размер: 746.24 МБ | Добавлен: 11 мар 2015
Раздают: 64    Качают: 7
Скачать торрент
Скачать торрент
Описание торрента

СообщениеДобавлено: 11 мар 2015 

Страна: СССР
Производство: Central Newsreel Studio, Ukrainian Newsreel
Жанр: документальный, военный
Год выпуска: 1943
Продолжительность: 01:11:52
Перевод: Не требуется
Cубтитры: нет
Оригинальная аудиодорожка: русский
Режиссер: Александр Довженко, Юлия Солнцева, Яков Авдеенко
Описание:
Яркая фронтовая хроника, своеобразный монтажный рисунок фильма объединяют "Битву за нашу Советскую Украину" с лучшими кинолентами военных лет. Но в этой картине было и нечто новое, что впервые так ярко и цельно проявилось в военной кинопублицистике. Впервые мы услышали в таком объеме живые голоса участников событий, разворачивающихся на экране. Впервые экран зазвучал не сухим голосом диктора, а передавал личные мысли и чувства Александра Довженко. Как точно отметил известный кинокритик Р. Юренев, сам участник Великой Отечественной войны, "в дикторском тексте фильма, раздвигая время и пространство, строгие интонации военной сводки и прямая перекличка с Гоголем и Шевченко, с народной думой, эпическим сказанием. В нем лозунги, приказы, проклятия и восклицания, а рядом неторопливая речь летописца, плавное рассуждение философа".
Важность работы Довженко в кинодокументалистике трудно переоценить. Работая над документальными фильмами, Довженко и здесь проявил себя как новатор новых идей и методов, разработав художественные средства съемки военной кинопублицистики. "Мы работали с Юлией (Солнцевой) , этот фильм больше для всего мира, меньше для наших зрителей", — писал он в своем "Дневнике". В титрах фильма значатся режиссеры Ю. Солнцева и Я. Авдеенко. Но текст и монтаж — за Довженко. Картина имела большой успех не только в нашей стране, но во всех странах-союзниках, особенно в Канаде и США.





Источник: DVD5 R5
Качество видео: DVDRip
Формат видео: AVI
Видео: 672x512 (4:3), 25 fps, XviD ~ 1250 kbps avg, 0.145 bit/pixel
Аудио: 48 kHz, Dolby Digital AC3 2.0, 192 kbps
Раздача от:
Общее
Полное имя : Bitva.za.nashu.Sovetskuyu.Ukrainu.1943.DVDRip_[New-team]_by_AVP_Studio.avi
Формат : AVI
Формат/Информация : Audio Video Interleave
Размер файла : 746 Мбайт
Продолжительность : 1 ч. 11 м.
Общий поток : 1452 Кбит/сек
Программа кодирования : VirtualDubModRus 1.5.10.2 (build 2542/release)
Библиотека кодирования : VirtualDubMod build 2542/release
Видео
Идентификатор : 0
Формат : MPEG-4 Visual
Профиль формата : Advanced Simple@L5
Параметр BVOP формата : 1
Параметр QPel формата : Нет
Параметр GMC формата : Без точки перехода
Параметр матрицы формата : Выборочная
Идентификатор кодека : XVID
Идентификатор кодека/Подсказка : XviD
Продолжительность : 1 ч. 11 м.
Битрейт : 1250 Кбит/сек
Ширина : 672 пикселя
Высота : 512 пикселей
Соотношение сторон : 4:3
Частота кадров : 25,000 кадров/сек
Цветовое пространство : YUV
Субдискретизация насыщенности : 4:2:0
Битовая глубина : 8 бит
Тип развёртки : Прогрессивная
Метод сжатия : С потерями
Бит/(Пиксели*Кадры) : 0.145
Размер потока : 643 Мбайт (86%)
Библиотека кодирования : XviD 73
Аудио
Идентификатор : 1
Формат : AC-3
Формат/Информация : Audio Coding 3
Расширение режима : CM (complete main)
Параметр Endianness формата : Big
Идентификатор кодека : 2000
Продолжительность : 1 ч. 11 м.
Вид битрейта : Постоянный
Битрейт : 192 Кбит/сек
Каналы : 2 канала
Расположение каналов : Front: L R
Частота : 48,0 КГц
Битовая глубина : 16 бит
Метод сжатия : С потерями
Размер потока : 98,7 Мбайт (13%)
Выравнивание : Разделение по промежуткам
Продолжительность промежутка : 40 мс. (1,00 видеокадр)
Время предзагрузки промежутка : 500 мс





   Похожие торренты   Торрент   Размер 
В этой теме нет новых непрочитанных сообщений. Битва за нашу Советскую Украину (1943) DVDRip-AVC от New-Team

124 | 7

744.8 МБ

В этой теме нет новых непрочитанных сообщений. Битва за нашу Советскую Украину (1943) DVDRip

1 | 2

700.46 МБ

В этой теме нет новых непрочитанных сообщений. Почему мы воюем. Битва за Россию / Why we fight. The Battle Of Russia (1943) DVDRip

167 | 3

800.24 МБ

В этой теме нет новых непрочитанных сообщений. Актриса (1943) DVDRip от New-Team

30 | 9

763.68 МБ

В этой теме нет новых непрочитанных сообщений. Мы с Урала (1943) DVDRip от New-Team

7 | 4

1.09 ГБ

В этой теме нет новых непрочитанных сообщений. Давид Бек (1943) DVDRip от New-Team

6 | 6

746.64 МБ

В этой теме нет новых непрочитанных сообщений. Фронт (1943) DVDRip от New-Team

24 | 7

1.46 ГБ




Вы не можете начинать темы
Вы не можете отвечать на сообщения
Вы не можете редактировать свои сообщения
Вы не можете удалять свои сообщения
Вы не можете добавлять вложения

Перейти:  
Для Мосгорсуда, Роскомнадзора и рекламодателей: mosgorsud-torrent[собачка]yandex.ru
 Вход
ppkBB3cker v.2 © 2008-2014 @ PPK
[ Time : 0.029s | 16 Queries | GZIP : Off ]

Торрент трекер RUTOR.IN, Не можете зайти на rutor.org? Какой новый адрес рутор? Какое зеркало рутор? Не работает rutor.org и зеркала? Тогда наш торрент специально для вас. Rutor.in неофициальное зеркало rutor. В случае если у Вас заблокирован rutor или вдруг Вы не можете на него зайти, то Вы без труда сможете скачать бесплатно и без рекламы последние новинки кино, игр, сериалов и прочего у нас, на Rutor.in. Не нужно использовать прокси, чтобы зайти на рутор, достаточно воспользоваться нашим ресурсом. Все новые фильмы, игры, сериалы, книги и музыка за 2013 и 2014 годы через торрент бесплатно. Скачивайте фильмы в хорошем качестве, игры для пк, xbox, playstation без регистрации. У нас вы найдете новые Зарубежные сериалы и Русские сериалы 2013, 2014, 2015 годов. Оставайтесь с нами, качайте любимые фильмы, игры, сериалы, книги и музыку.