img image001 image001 image001 image001 image001 image001 image001 image001 image001 image001 image001 image001 image001 image001 image001

Planets Sun Sun Sun
Статистика раздачи
Автор: Nickolas3434 | Размер: 748.08 МБ | Добавлен: 11 мар 2015
Раздают: 4    Качают: 5
Скачать торрент
Скачать торрент
Описание торрента

СообщениеДобавлено: 11 мар 2015 

Страна: СССР
Производство: Союздетфильм, Студия Сталинобад
Жанр: драма, биография
Год выпуска: 1943
Продолжительность: 01:17:12
Перевод: Не требуется
Cубтитры: нет
Оригинальная аудиодорожка: русский
Режиссер: Альберт Гендельштейн
В ролях:
Алексей Консовский, Нина Шатерникова, Андрей Раевский, Павел Шпрингфельд, Георгий Менглет, Павел Массальский, Сергей Мартинсон, Алексей Савостьянов, Лидия Сухаревская, Николай Комиссаров, Борис Тенин, Михаил Трояновский, Андрей Файт, Нина Никольская, Александр Комиссаров, Вера Алтайская, Семен Свашенко, Михаил Сидоркин, Карл Гурняк, Степан Каюков, Иван Рыжов, Сергей Комаров, Майя Менглет...
Описание:
Действие картины начинается с предсмертных дней Пушкина и заканчивается гибелью Лермонтова. Страдающий, радостно-взволнованный, одухотворенный, мятежный — таким предстает перед зрителями великий русский поэт в гениальных строчках его стихов, в глубоких размышлениях, в смелых и дерзких поступках.





Источник: DVB
Качество видео: SATRip
Формат видео: AVI
Видео: 640x480 (4:3), 23,976 fps, XviD ~ 1153 kbps avg, 0.157 bit/pixel
Аудио: 48 kHz, Dolby Digital AC3 2.0, 192 kbps
Раздача от:
Общее
Полное имя : Lermontov.1943.DVDRip_[New-team]_by_AVP_Studio.avi
Формат : AVI
Формат/Информация : Audio Video Interleave
Размер файла : 748 Мбайт
Продолжительность : 1 ч. 17 м.
Общий поток : 1355 Кбит/сек
Программа кодирования : VirtualDubModRus 1.5.10.2 (build 2542/release)
Библиотека кодирования : VirtualDubMod build 2542/release
Видео
Идентификатор : 0
Формат : MPEG-4 Visual
Профиль формата : Advanced Simple@L5
Параметр BVOP формата : 1
Параметр QPel формата : Нет
Параметр GMC формата : Без точки перехода
Параметр матрицы формата : Выборочная
Идентификатор кодека : XVID
Идентификатор кодека/Подсказка : XviD
Продолжительность : 1 ч. 17 м.
Битрейт : 1153 Кбит/сек
Ширина : 640 пикселей
Высота : 480 пикселей
Соотношение сторон : 4:3
Частота кадров : 23,976 кадра/сек
Цветовое пространство : YUV
Субдискретизация насыщенности : 4:2:0
Битовая глубина : 8 бит
Тип развёртки : Прогрессивная
Метод сжатия : С потерями
Бит/(Пиксели*Кадры) : 0.157
Размер потока : 637 Мбайт (85%)
Библиотека кодирования : XviD 73
Аудио
Идентификатор : 1
Формат : AC-3
Формат/Информация : Audio Coding 3
Расширение режима : CM (complete main)
Параметр Endianness формата : Big
Идентификатор кодека : 2000
Продолжительность : 1 ч. 17 м.
Вид битрейта : Постоянный
Битрейт : 192 Кбит/сек
Каналы : 2 канала
Расположение каналов : Front: L R
Частота : 48,0 КГц
Битовая глубина : 16 бит
Метод сжатия : С потерями
Размер потока : 106 Мбайт (14%)
Выравнивание : Разделение по промежуткам
Продолжительность промежутка : 42 мс. (1,00 видеокадр)
Время предзагрузки промежутка : 500 мс





   Похожие торренты   Торрент   Размер 
В этой теме нет новых непрочитанных сообщений. Лермонтов (1943) SATRip-AVC от New-Team

17 | 4

744.8 МБ

В этой теме нет новых непрочитанных сообщений. Михаил Лермонтов.Таинственная повесть [01-04 из 04] (2014) SATRip от Generalfilm

9 | 0

1.37 ГБ

В этой теме нет новых непрочитанных сообщений. Два бойца (1943) DVDRip от New-Team

13 | 11

743.34 МБ

В этой теме нет новых непрочитанных сообщений. Фронт (1943) DVDRip от New-Team

24 | 6

1.46 ГБ

В этой теме нет новых непрочитанных сообщений. Жди меня (1943) DVDRip от New-Team

10 | 7

1.45 ГБ

В этой теме нет новых непрочитанных сообщений. Жди меня (1943) DVDRip от New-Team

14 | 27

743.4 МБ

В этой теме нет новых непрочитанных сообщений. Актриса (1943) DVDRip от New-Team

29 | 8

1.09 ГБ




Вы не можете начинать темы
Вы не можете отвечать на сообщения
Вы не можете редактировать свои сообщения
Вы не можете удалять свои сообщения
Вы не можете добавлять вложения

Перейти:  
Для Мосгорсуда, Роскомнадзора и рекламодателей: mosgorsud-torrent[собачка]yandex.ru
 Вход
ppkBB3cker v.2 © 2008-2014 @ PPK
[ Time : 1.272s | 18 Queries | GZIP : Off ]

cron