img image001 image001 image001 image001 image001 image001 image001 image001 image001 image001 image001 image001 image001 image001 image001

Planets Sun Sun Sun
Статистика раздачи
Автор: Nickolas3434 | Размер: 744.8 МБ | Добавлен: 11 мар 2015
Раздают: 27    Качают: 5
Скачать торрент
Скачать торрент
Описание торрента

СообщениеДобавлено: 11 мар 2015 

Страна: СССР
Производство: Союздетфильм, Студия Сталинобад
Жанр: драма, биография
Год выпуска: 1943
Продолжительность: 01:17:12
Перевод: Не требуется
Cубтитры: нет
Оригинальная аудиодорожка: русский
Режиссер: Альберт Гендельштейн
В ролях:
Алексей Консовский, Нина Шатерникова, Андрей Раевский, Павел Шпрингфельд, Георгий Менглет, Павел Массальский, Сергей Мартинсон, Алексей Савостьянов, Лидия Сухаревская, Николай Комиссаров, Борис Тенин, Михаил Трояновский, Андрей Файт, Нина Никольская, Александр Комиссаров, Вера Алтайская, Семен Свашенко, Михаил Сидоркин, Карл Гурняк, Степан Каюков, Иван Рыжов, Сергей Комаров, Майя Менглет...
Описание:
Действие картины начинается с предсмертных дней Пушкина и заканчивается гибелью Лермонтова. Страдающий, радостно-взволнованный, одухотворенный, мятежный — таким предстает перед зрителями великий русский поэт в гениальных строчках его стихов, в глубоких размышлениях, в смелых и дерзких поступках.





Источник: DVB
Качество видео: SATRip-AVC
Формат видео: MKV
Видео: 688x480@688x516 (4:3), 23,976 fps, H264 ~ 1155 kbps avg, 0.146 bit/pixel
Аудио: 48 kHz, Dolby Digital AC3 2.0, 192 kbps
Раздача от:
Общее
Полное имя : Lermontov.1943.DVDRip-AVC_[New-team]_by_AVP_Studio.mkv
Формат : Matroska
Версия формата : Version 2
Размер файла : 745 Мбайт
Продолжительность : 1 ч. 17 м.
Общий поток : 1349 Кбит/сек
Дата кодирования : UTC 2015-03-10 11:12:00
Программа кодирования : mkvmerge v6.1.0 ('Old Devil') built on Mar 4 2013 09:10:42
Библиотека кодирования : libebml v1.3.0 + libmatroska v1.4.0
Видео
Идентификатор : 1
Формат : AVC
Формат/Информация : Advanced Video Codec
Профиль формата : High@L4.1
Параметр CABAC формата : Да
Параметр ReFrames формата : 8 кадров
Идентификатор кодека : V_MPEG4/ISO/AVC
Продолжительность : 1 ч. 17 м.
Битрейт : 1155 Кбит/сек
Ширина : 688 пикселей
Высота : 480 пикселей
Соотношение сторон : 4:3
Режим частоты кадров : Постоянный
Частота кадров : 23,976 кадра/сек
Цветовое пространство : YUV
Субдискретизация насыщенности : 4:2:0
Битовая глубина : 8 бит
Тип развёртки : Прогрессивная
Бит/(Пиксели*Кадры) : 0.146
Размер потока : 624 Мбайт (84%)
Библиотека кодирования : x264 core 138 r2356 a1d3d17
Настройки программы : cabac=1 / ref=8 / deblock=1:-2:-1 / analyse=0x3:0x113 / me=umh / subme=10 / psy=1 / psy_rd=1.00:0.05 / mixed_ref=1 / me_range=32 / chroma_me=1 / trellis=2 / 8x8dct=1 / cqm=0 / deadzone=21,11 / fast_pskip=0 / chroma_qp_offset=-3 / threads=6 / lookahead_threads=1 / sliced_threads=0 / nr=0 / decimate=0 / interlaced=0 / bluray_compat=0 / constrained_intra=0 / bframes=8 / b_pyramid=2 / b_adapt=2 / b_bias=0 / direct=3 / weightb=1 / open_gop=0 / weightp=2 / keyint=240 / keyint_min=24 / scenecut=40 / intra_refresh=0 / rc_lookahead=40 / rc=2pass / mbtree=1 / bitrate=1155 / ratetol=1.0 / qcomp=0.60 / qpmin=0 / qpmax=69 / qpstep=4 / cplxblur=20.0 / qblur=0.5 / ip_ratio=1.40 / aq=1:1.00
Default : Да
Forced : Нет
Аудио
Идентификатор : 2
Формат : AC-3
Формат/Информация : Audio Coding 3
Расширение режима : CM (complete main)
Параметр Endianness формата : Big
Идентификатор кодека : A_AC3
Продолжительность : 1 ч. 17 м.
Вид битрейта : Постоянный
Битрейт : 192 Кбит/сек
Каналы : 2 канала
Расположение каналов : Front: L R
Частота : 48,0 КГц
Битовая глубина : 16 бит
Метод сжатия : С потерями
Размер потока : 106 Мбайт (14%)
Default : Да
Forced : Нет





   Похожие торренты   Торрент   Размер 
В этой теме нет новых непрочитанных сообщений. Лермонтов (1943) SATRip от New-Team

8 | 6

748.08 МБ

В этой теме нет новых непрочитанных сообщений. Во имя Родины (1943) DVDRip от New-Team

3 | 7

744.17 МБ

В этой теме нет новых непрочитанных сообщений. Радуга (1943) DVDRip-AVC от New-Team

18 | 4

1.46 ГБ

В этой теме нет новых непрочитанных сообщений. Актриса (1943) DVDRip от New-Team

34 | 9

1.09 ГБ

В этой теме нет новых непрочитанных сообщений. Актриса (1943) DVDRip от New-Team

30 | 9

763.68 МБ

В этой теме нет новых непрочитанных сообщений. Актриса (1943) DVDRip-AVC от New-Team

6 | 20

1.09 ГБ

В этой теме нет новых непрочитанных сообщений. Радуга (1943) DVDRip от New-Team

124 | 14

744.65 МБ




Вы не можете начинать темы
Вы не можете отвечать на сообщения
Вы не можете редактировать свои сообщения
Вы не можете удалять свои сообщения
Вы не можете добавлять вложения

Перейти:  
Для Мосгорсуда, Роскомнадзора и рекламодателей: mosgorsud-torrent[собачка]yandex.ru
 Вход
ppkBB3cker v.2 © 2008-2014 @ PPK
[ Time : 0.045s | 16 Queries | GZIP : On ]

Торрент трекер RUTOR.IN, Не можете зайти на rutor.org? Какой новый адрес рутор? Какое зеркало рутор? Не работает rutor.org и зеркала? Тогда наш торрент специально для вас. Rutor.in неофициальное зеркало rutor. В случае если у Вас заблокирован rutor или вдруг Вы не можете на него зайти, то Вы без труда сможете скачать бесплатно и без рекламы последние новинки кино, игр, сериалов и прочего у нас, на Rutor.in. Не нужно использовать прокси, чтобы зайти на рутор, достаточно воспользоваться нашим ресурсом. Все новые фильмы, игры, сериалы, книги и музыка за 2013 и 2014 годы через торрент бесплатно. Скачивайте фильмы в хорошем качестве, игры для пк, xbox, playstation без регистрации. У нас вы найдете новые Зарубежные сериалы и Русские сериалы 2013, 2014, 2015 годов. Оставайтесь с нами, качайте любимые фильмы, игры, сериалы, книги и музыку.