img image001 image001 image001 image001 image001 image001 image001 image001 image001 image001 image001 image001 image001 image001 image001

Planets Sun Sun Sun
Статистика раздачи
Автор: Nickolas3434 | Размер: 2.19 ГБ | Добавлен: 12 мар 2015
Раздают: 71    Качают: 41
Скачать торрент
Скачать торрент
Описание торрента

СообщениеДобавлено: 12 мар 2015 

Страна: СССР
Производство: Студия Алма-Ата
Жанр: драма, военный
Год выпуска: 1942
Продолжительность: 03:07:57 (01.35.22 + 01:32:35)
Перевод: Не требуется
Cубтитры: нет
Оригинальная аудиодорожка: русский
Режиссер: Георгий Васильев, Сергей Васильев
Описание:
Организация обороны Царицына стала первостепенной задачей для прибывшего в город Иосифа Сталина. Он разгадал замысел контрреволюционеров, заключавшийся в том, чтобы отторгнуть от Советской России наиболее богатые хлебные районы и удушить ее при помощи голода. С этой целью белогвардейцы столь активно стремились перерезать все пути, ведущие из Царицына в центр России. Благодаря активным действиям большевиков, контрреволюционное подполье в городе провалилось и не смогло оказать существенной помощи белогвардейским войскам, наступавшим на Царицын. В его обороне исключительно важную роль сыграла большая работа, проведенная Сталиным по превращению отдельных красногвардейских отрядов в регулярную рабоче-крестьянскую Красную Армию. На укреплении Царицынского фронта существенно сказалась правильная организация работы тыла: на полную мощность заработали заводы, выпускающие военную продукцию, и войска, защищающие город, вовремя и в достатке получали оружие и боеприпасы. Под руководством Сталина большевики Царицына и прилегающего к нему фронта в короткий срок превратили его в неприступную для врага крепость...
Фильм состоит из двух частей – "Поход Ворошилова" и "Оборона". В широкий прокат выходила только первая часть.





Источник: DVD5 R5
Качество видео: DVDRip
Формат видео: AVI
Видео: 640x480 (4:3), 23,976 fps, XviD ~ 1465 kbps avg, 0.199 bit/pixel
Аудио: 48 kHz, Dolby Digital AC3 2.0, 192 kbps
Раздача от:
Общее
Полное имя : Oborona.Caricyna.1942.DVDRip_[New-team]_by_AVP_Studio.avi
Формат : AVI
Формат/Информация : Audio Video Interleave
Размер файла : 1,11 Гбайт
Продолжительность : 1 ч. 35 м.
Общий поток : 1666 Кбит/сек
Программа кодирования : VirtualDubModRus 1.5.10.2 (build 2542/release)
Библиотека кодирования : VirtualDubMod build 2542/release
Видео
Идентификатор : 0
Формат : MPEG-4 Visual
Профиль формата : Advanced Simple@L5
Параметр BVOP формата : 1
Параметр QPel формата : Нет
Параметр GMC формата : Без точки перехода
Параметр матрицы формата : Выборочная
Идентификатор кодека : XVID
Идентификатор кодека/Подсказка : XviD
Продолжительность : 1 ч. 35 м.
Битрейт : 1465 Кбит/сек
Ширина : 640 пикселей
Высота : 480 пикселей
Соотношение сторон : 4:3
Частота кадров : 23,976 кадра/сек
Цветовое пространство : YUV
Субдискретизация насыщенности : 4:2:0
Битовая глубина : 8 бит
Тип развёртки : Прогрессивная
Метод сжатия : С потерями
Бит/(Пиксели*Кадры) : 0.199
Размер потока : 999 Мбайт (88%)
Библиотека кодирования : XviD 73
Аудио
Идентификатор : 1
Формат : AC-3
Формат/Информация : Audio Coding 3
Расширение режима : CM (complete main)
Параметр Endianness формата : Big
Идентификатор кодека : 2000
Продолжительность : 1 ч. 35 м.
Вид битрейта : Постоянный
Битрейт : 192 Кбит/сек
Каналы : 2 канала
Расположение каналов : Front: L R
Частота : 48,0 КГц
Битовая глубина : 16 бит
Метод сжатия : С потерями
Размер потока : 131 Мбайт (12%)
Выравнивание : Разделение по промежуткам
Продолжительность промежутка : 42 мс. (1,00 видеокадр)
Время предзагрузки промежутка : 500 мс





   Похожие торренты   Торрент   Размер 
В этой теме нет новых непрочитанных сообщений. Оборона Царицына (1942) DVDRip-AVC от New-Team

46 | 14

2.18 ГБ

В этой теме нет новых непрочитанных сообщений. Неуловимый Ян (1942) DVDRip-AVC от New-Team

14 | 17

744.51 МБ

В этой теме нет новых непрочитанных сообщений. Неуловимый Ян (1942) DVDRip от New-Team

7 | 6

744.79 МБ

В этой теме нет новых непрочитанных сообщений. Котовский (1942) DVDRip-AVC от New-Team

19 | 6

745.94 МБ

В этой теме нет новых непрочитанных сообщений. Котовский (1942) DVDRip от New-Team

77 | 28

745.4 МБ

В этой теме нет новых непрочитанных сообщений. Бой под Соколом (1942) DVDRip-AVC от New-Team

16 | 6

744.52 МБ

В этой теме нет новых непрочитанных сообщений. Непобедимые (1942) DVDRip от New-Team

29 | 11

1.46 ГБ




Вы не можете начинать темы
Вы не можете отвечать на сообщения
Вы не можете редактировать свои сообщения
Вы не можете удалять свои сообщения
Вы не можете добавлять вложения

Перейти:  
Для Мосгорсуда, Роскомнадзора и рекламодателей: mosgorsud-torrent[собачка]yandex.ru
 Вход
ppkBB3cker v.2 © 2008-2014 @ PPK
[ Time : 0.043s | 15 Queries | GZIP : Off ]

Торрент трекер RUTOR.IN, Не можете зайти на rutor.org? Какой новый адрес рутор? Какое зеркало рутор? Не работает rutor.org и зеркала? Тогда наш торрент специально для вас. Rutor.in неофициальное зеркало rutor. В случае если у Вас заблокирован rutor или вдруг Вы не можете на него зайти, то Вы без труда сможете скачать бесплатно и без рекламы последние новинки кино, игр, сериалов и прочего у нас, на Rutor.in. Не нужно использовать прокси, чтобы зайти на рутор, достаточно воспользоваться нашим ресурсом. Все новые фильмы, игры, сериалы, книги и музыка за 2013 и 2014 годы через торрент бесплатно. Скачивайте фильмы в хорошем качестве, игры для пк, xbox, playstation без регистрации. У нас вы найдете новые Зарубежные сериалы и Русские сериалы 2013, 2014, 2015 годов. Оставайтесь с нами, качайте любимые фильмы, игры, сериалы, книги и музыку.