img image001 image001 image001 image001 image001 image001 image001 image001 image001 image001 image001 image001 image001 image001 image001

Planets Sun Sun Sun
Статистика раздачи
Автор: Nickolas3434 | Размер: 1.46 ГБ | Добавлен: 13 мар 2015
Раздают: 15    Качают: 8
Скачать торрент
Скачать торрент
Описание торрента

СообщениеДобавлено: 13 мар 2015 

Страна: СССР
Производство: Киевская киностудия
Жанр: драма, военный
Год выпуска: 1943
Продолжительность: 01:26:02
Перевод: Не требуется
Cубтитры: нет
Оригинальная аудиодорожка: русский
Режиссер: Марк Донской
В ролях:
Наталья Ужвий, Нина Алисова, Елена Тяпкина, Валентина Ивашёва, Антон Дунайский, Анна Лисянская, Ганс Клеринг, Николай Братерский, Владимир Чобур, Витя Виноградов, Алик Летичевский, Эмма Малая, Вова Пономарев, Юлия Ткаченко, Василий Дашенко, Дмитрий Капка...
Описание:
Экранизация одноименной повести Ванды Василевской. Этот фильм примечателен тем уже, что вышел в годы войны и снят в труднейших условиях. Он о доблести и героизме партизан, о простой украинской женщине Олене Костюк, вставшей в ряды народных мстителей. "Судьба Олены Костюк, - говорила исполнительница главной роли Наталия Ужвий, - которая без единого стона перенесла нечеловеческие муки, пытки, смерть новорожденного ребенка, убитого фашистским офицером, и не выдала своих товарищей, никого не оставила равнодушным. Она воспринималась как символ, как обобщенное изображение народной силы, великого мужества и страстной материнской любви..."Радуга" задевала за живое, звучала как гневная речь прокурора...Она вызывала ненависть к врагу, желание бороться до конца".





Источник: DVD5 R5
Качество видео: DVDRip
Формат видео: AVI
Видео: 688x512 (4:3), 25,000 fps, XviD ~ 2287 kbps avg, 0.260 bit/pixel
Аудио: 48 kHz, Dolby Digital AC3 2.0, 128 kbps
Раздача от:
Общее
Полное имя : Raduga.1943.DVDRip_[New-team]_by_AVP_Studio.avi
Формат : AVI
Формат/Информация : Audio Video Interleave
Размер файла : 1,46 Гбайт
Продолжительность : 1 ч. 26 м.
Общий поток : 2425 Кбит/сек
Программа кодирования : VirtualDubModRus 1.5.10.2 (build 2542/release)
Библиотека кодирования : VirtualDubMod build 2542/release
Видео
Идентификатор : 0
Формат : MPEG-4 Visual
Профиль формата : Advanced Simple@L5
Параметр BVOP формата : 1
Параметр QPel формата : Нет
Параметр GMC формата : Без точки перехода
Параметр матрицы формата : Выборочная
Идентификатор кодека : XVID
Идентификатор кодека/Подсказка : XviD
Продолжительность : 1 ч. 26 м.
Битрейт : 2287 Кбит/сек
Ширина : 688 пикселей
Высота : 512 пикселей
Соотношение сторон : 4:3
Частота кадров : 25,000 кадров/сек
Цветовое пространство : YUV
Субдискретизация насыщенности : 4:2:0
Битовая глубина : 8 бит
Тип развёртки : Прогрессивная
Метод сжатия : С потерями
Бит/(Пиксели*Кадры) : 0.260
Размер потока : 1,37 Гбайт (94%)
Библиотека кодирования : XviD 73
Аудио
Идентификатор : 1
Формат : AC-3
Формат/Информация : Audio Coding 3
Расширение режима : CM (complete main)
Параметр Endianness формата : Big
Идентификатор кодека : 2000
Продолжительность : 1 ч. 26 м.
Вид битрейта : Постоянный
Битрейт : 128 Кбит/сек
Каналы : 2 канала
Расположение каналов : Front: L R
Частота : 48,0 КГц
Битовая глубина : 16 бит
Метод сжатия : С потерями
Размер потока : 78,8 Мбайт (5%)
Выравнивание : Разделение по промежуткам
Продолжительность промежутка : 40 мс. (1,00 видеокадр)
Время предзагрузки промежутка : 500 мс





   Похожие торренты   Торрент   Размер 
В этой теме нет новых непрочитанных сообщений. Радуга (1943) DVDRip от New-Team

122 | 12

744.65 МБ

В этой теме нет новых непрочитанных сообщений. Радуга (1943) DVDRip-AVC от New-Team

12 | 2

1.46 ГБ

В этой теме нет новых непрочитанных сообщений. Два бойца (1943) DVDRip-AVC от New-Team

50 | 14

744.63 МБ

В этой теме нет новых непрочитанных сообщений. Жди меня (1943) DVDRip от New-Team

10 | 7

1.45 ГБ

В этой теме нет новых непрочитанных сообщений. Жди меня (1943) DVDRip от New-Team

14 | 29

743.4 МБ

В этой теме нет новых непрочитанных сообщений. Жди меня (1943) DVDRip-AVC от New-Team

9 | 4

1.09 ГБ

В этой теме нет новых непрочитанных сообщений. Сталинград (1943) DVDRip от New-Team

152 | 3

1.09 ГБ




Вы не можете начинать темы
Вы не можете отвечать на сообщения
Вы не можете редактировать свои сообщения
Вы не можете удалять свои сообщения
Вы не можете добавлять вложения

Перейти:  
Для Мосгорсуда, Роскомнадзора и рекламодателей: mosgorsud-torrent[собачка]yandex.ru
 Вход
ppkBB3cker v.2 © 2008-2014 @ PPK
[ Time : 0.042s | 17 Queries | GZIP : Off ]

cron