img image001 image001 image001 image001 image001 image001 image001 image001 image001 image001 image001 image001 image001 image001 image001

Planets Sun Sun Sun
Статистика раздачи
Автор: Nickolas3434 | Размер: 763.68 МБ | Добавлен: 15 мар 2015
Раздают: 30    Качают: 9
Скачать торрент
Скачать торрент
Описание торрента

СообщениеДобавлено: 15 мар 2015 

Страна: СССР
Производство: Студия Алма-Ата
Жанр: мелодрама, комедия, военный
Год выпуска: 1943
Продолжительность: 01:11:36
Перевод: Не требуется
Cубтитры: нет
Оригинальная аудиодорожка: русский
Режиссер: Леонид Трауберг
В ролях:
Галина Сергеева (вокал - Вера Красовицкая), Борис Бабочкин, Зинаида Морская, Владимир Грибков, Михаил Жаров, Юрий Коршун, Константин Сорокин, Николай Темяков, Владимир Шишкин, Александра Денисова, Георгий Гумилевский, Георгий Светлани, Григорий Шпигель, Юрий Боголюбов, Инна Фёдорова, Манефа Соболевская, Александра Данилова, Владимир Уральский, Михаил Кузнецов, Зоя Толбузина (Земнухова)...
Описание:
Известная актриса оперетты, посчитав, что в годы войны ее профессия неуместна, решила оставить музыку. Но желание услышать песню на фронте, в тылу и в госпиталях оказалось для многих естественным и необходимым, а для певицы — стало открытием. Актриса возвращается в театр...





Источник: DVD5 R5
Качество видео: DVDRip
Формат видео: AVI
Видео: 688x512 (4:3), 25 fps, XviD ~ 1353 kbps avg, 0.154 bit/pixel
Аудио: 48 kHz, MP3 2.0, 128 kbps
Раздача от:
Общее
Полное имя : Aktrisa.1943.DVDRip-745_[New-team]_by_AVP_Studio.avi
Формат : AVI
Формат/Информация : Audio Video Interleave
Размер файла : 764 Мбайт
Продолжительность : 1 ч. 11 м.
Общий поток : 1491 Кбит/сек
Программа кодирования : VirtualDubModRus 1.5.10.2 (build 2542/release)
Библиотека кодирования : VirtualDubMod build 2542/release
Видео
Идентификатор : 0
Формат : MPEG-4 Visual
Профиль формата : Advanced Simple@L5
Параметр BVOP формата : 1
Параметр QPel формата : Нет
Параметр GMC формата : Без точки перехода
Параметр матрицы формата : Выборочная
Идентификатор кодека : XVID
Идентификатор кодека/Подсказка : XviD
Продолжительность : 1 ч. 11 м.
Битрейт : 1353 Кбит/сек
Ширина : 688 пикселей
Высота : 512 пикселей
Соотношение сторон : 4:3
Частота кадров : 25,000 кадров/сек
Цветовое пространство : YUV
Субдискретизация насыщенности : 4:2:0
Битовая глубина : 8 бит
Тип развёртки : Прогрессивная
Метод сжатия : С потерями
Бит/(Пиксели*Кадры) : 0.154
Размер потока : 693 Мбайт (91%)
Библиотека кодирования : XviD 73
Аудио
Идентификатор : 1
Формат : MPEG Audio
Версия формата : Version 1
Профиль формата : Layer 3
Идентификатор кодека : 55
Идентификатор кодека/Подсказка : MP3
Продолжительность : 1 ч. 11 м.
Вид битрейта : Постоянный
Битрейт : 128 Кбит/сек
Каналы : 2 канала
Частота : 48,0 КГц
Метод сжатия : С потерями
Размер потока : 65,6 Мбайт (9%)
Выравнивание : Соединение по промежуткам
Продолжительность промежутка : 40 мс. (1,00 видеокадр)
Время предзагрузки промежутка : 504 мс.
Библиотека кодирования : LAME3.99r
Настройки программы : -m s -V 4 -q 2 -lowpass 17 -b 128





   Похожие торренты   Торрент   Размер 
В этой теме нет новых непрочитанных сообщений. Актриса (1943) DVDRip от New-Team

34 | 9

1.09 ГБ

В этой теме нет новых непрочитанных сообщений. Актриса (1943) DVDRip-AVC от New-Team

6 | 20

1.09 ГБ

В этой теме нет новых непрочитанных сообщений. Жди меня (1943) DVDRip от New-Team

12 | 8

1.45 ГБ

В этой теме нет новых непрочитанных сообщений. Два бойца (1943) DVDRip-AVC от New-Team

52 | 16

744.63 МБ

В этой теме нет новых непрочитанных сообщений. Мы с Урала (1943) DVDRip-AVC от New-Team

13 | 12

1.09 ГБ

В этой теме нет новых непрочитанных сообщений. Фронт (1943) DVDRip от New-Team

24 | 7

1.46 ГБ

В этой теме нет новых непрочитанных сообщений. Два бойца (1943) DVDRip от New-Team

16 | 12

743.34 МБ




Вы не можете начинать темы
Вы не можете отвечать на сообщения
Вы не можете редактировать свои сообщения
Вы не можете удалять свои сообщения
Вы не можете добавлять вложения

Перейти:  
Для Мосгорсуда, Роскомнадзора и рекламодателей: mosgorsud-torrent[собачка]yandex.ru
 Вход
ppkBB3cker v.2 © 2008-2014 @ PPK
[ Time : 0.050s | 15 Queries | GZIP : On ]

Торрент трекер RUTOR.IN, Не можете зайти на rutor.org? Какой новый адрес рутор? Какое зеркало рутор? Не работает rutor.org и зеркала? Тогда наш торрент специально для вас. Rutor.in неофициальное зеркало rutor. В случае если у Вас заблокирован rutor или вдруг Вы не можете на него зайти, то Вы без труда сможете скачать бесплатно и без рекламы последние новинки кино, игр, сериалов и прочего у нас, на Rutor.in. Не нужно использовать прокси, чтобы зайти на рутор, достаточно воспользоваться нашим ресурсом. Все новые фильмы, игры, сериалы, книги и музыка за 2013 и 2014 годы через торрент бесплатно. Скачивайте фильмы в хорошем качестве, игры для пк, xbox, playstation без регистрации. У нас вы найдете новые Зарубежные сериалы и Русские сериалы 2013, 2014, 2015 годов. Оставайтесь с нами, качайте любимые фильмы, игры, сериалы, книги и музыку.