img image001 image001 image001 image001 image001 image001 image001 image001 image001 image001 image001 image001 image001 image001 image001

Planets Sun Sun Sun
Статистика раздачи
Автор: Nickolas3434 | Размер: 744.59 МБ | Добавлен: 15 мар 2015
Раздают: 23    Качают: 9
Скачать торрент
Скачать торрент
Описание торрента

СообщениеДобавлено: 15 мар 2015 

Страна: СССР
Производство: ЦОКС
Жанр: драма, военный
Год выпуска: 1942
Продолжительность: 01:28:35
Перевод: Не требуется
Cубтитры: нет
Оригинальная аудиодорожка: русский
Режиссер: Сергей Герасимов, Михаил Калатозов
В ролях:
Петр Алейников, Борис Блинов, Тамара Макарова, Александр Хвыля, Борис Бабочкин, Николай Черкасов, Петр Кириллов, Николай Дубинский, Н.Митрушенко...
Описание:
8 сентября фашистские войска группы «Север» перерезали пути, связывающие Ленинград со страной, и блокировали город с суши. Кольцо блокады замкнулось. Осенью 1941 года М.Блейман начал писать сценарий нового фильма. Он назвал его «Ленинградская осень». Автор писал о том, что ежедневно видел перед собой, что сам чувствовал и переживал—о повседневном будничном героизме ленинградцев в первые месяцы войны. 18 октября директор «Ленфильма» издал приказ—приступить к постановке полнометражной кинокартины «Героическая оборона Ленинграда». В приказе по студии лирическое название фильма было заменено друим—более строгим и официальным. Прокатное название—«Непобедимые». Режиссеры С.Герасимов и М.Калатозов намеревались поставить фильм, в котором главное было бы не в сюжете, а в характерах и атмосфере событий. Сам факт постановки полнометражного художественного фильма в блокированном врагами городе имел огромное агитационное значение. Работа над фильмом и в самом деле велась до тех пор, пока это позволяли условия блокады. Продолжать работу над фильмом в Ленинграде вскоре стало невозможным. Работа над картиной была перенесена в Ташкент. «В “Непобедимых”,—рассказывал Б.Бабочкин,—специально оговаривалось, что фильм повествует о первых месяцах блокады, а зрители воспринимали нашу картину как фильм о блокаде вообще. И, конечно, при таких обстоятельствах показанная в фильме жизнь ленинградцев выглядела облегченной, приукрашенной, даже фальшивой». Фильм «Непобедимые» оказался ближе более спокойному и аналитичному восприятию наших современников. Тогда критики заметили, что именно этим фильмом открывались многие темы, активно разрабатывавшиеся в послевоенных фильмах о войне, хотя бы тема, заявленная образом героя Бабочкина—Родионова: война наносит трудноизлечимые травмы не только телам, но и душам людей.





Источник: DVD5 R5
Качество видео: DVDRip
Формат видео: AVI
Видео: 640x480 (4:3), 25 fps, XviD ~ 1038 kbps avg, 0.135 bit/pixel
Аудио: 48 kHz, MP3 2.0, 128 kbps
Раздача от:
Общее
Полное имя : Nepobebimie.1943.DVDRip-745_[New-team]_by_AVP_Studio.avi
Формат : AVI
Формат/Информация : Audio Video Interleave
Размер файла : 745 Мбайт
Продолжительность : 1 ч. 28 м.
Общий поток : 1175 Кбит/сек
Программа кодирования : VirtualDubModRus 1.5.10.2 (build 2542/release)
Библиотека кодирования : VirtualDubMod build 2542/release
Видео
Идентификатор : 0
Формат : MPEG-4 Visual
Профиль формата : Advanced Simple@L5
Параметр BVOP формата : 1
Параметр QPel формата : Нет
Параметр GMC формата : Без точки перехода
Параметр матрицы формата : Выборочная
Идентификатор кодека : XVID
Идентификатор кодека/Подсказка : XviD
Продолжительность : 1 ч. 28 м.
Битрейт : 1038 Кбит/сек
Ширина : 640 пикселей
Высота : 480 пикселей
Соотношение сторон : 4:3
Частота кадров : 25,000 кадров/сек
Цветовое пространство : YUV
Субдискретизация насыщенности : 4:2:0
Битовая глубина : 8 бит
Тип развёртки : Прогрессивная
Метод сжатия : С потерями
Бит/(Пиксели*Кадры) : 0.135
Размер потока : 657 Мбайт (88%)
Библиотека кодирования : XviD 73
Аудио
Идентификатор : 1
Формат : MPEG Audio
Версия формата : Version 1
Профиль формата : Layer 3
Идентификатор кодека : 55
Идентификатор кодека/Подсказка : MP3
Продолжительность : 1 ч. 28 м.
Вид битрейта : Постоянный
Битрейт : 128 Кбит/сек
Каналы : 2 канала
Частота : 48,0 КГц
Метод сжатия : С потерями
Размер потока : 81,1 Мбайт (11%)
Выравнивание : Соединение по промежуткам
Продолжительность промежутка : 40 мс. (1,00 видеокадр)
Время предзагрузки промежутка : 504 мс.
Библиотека кодирования : LAME3.99r
Настройки программы : -m s -V 4 -q 2 -lowpass 17 -b 128





   Похожие торренты   Торрент   Размер 
В этой теме нет новых непрочитанных сообщений. Непобедимые (1942) DVDRip-AVC от New-Team

29 | 12

1.46 ГБ

В этой теме нет новых непрочитанных сообщений. Непобедимые (1942) DVDRip от New-Team

29 | 11

1.46 ГБ

В этой теме нет новых непрочитанных сообщений. Неуловимый Ян (1942) DVDRip от New-Team

7 | 6

744.79 МБ

В этой теме нет новых непрочитанных сообщений. Бой под Соколом (1942) DVDRip-AVC от New-Team

16 | 6

744.52 МБ

В этой теме нет новых непрочитанных сообщений. Неуловимый Ян (1942) DVDRip-AVC от New-Team

14 | 17

744.51 МБ

В этой теме нет новых непрочитанных сообщений. Бой под Соколом (1942) DVDRip от New-Team

10 | 6

744.55 МБ

В этой теме нет новых непрочитанных сообщений. Котовский (1942) DVDRip от New-Team

77 | 28

745.4 МБ




Вы не можете начинать темы
Вы не можете отвечать на сообщения
Вы не можете редактировать свои сообщения
Вы не можете удалять свои сообщения
Вы не можете добавлять вложения

Перейти:  
Для Мосгорсуда, Роскомнадзора и рекламодателей: mosgorsud-torrent[собачка]yandex.ru
 Вход
ppkBB3cker v.2 © 2008-2014 @ PPK
[ Time : 0.024s | 18 Queries | GZIP : Off ]

Торрент трекер RUTOR.IN, Не можете зайти на rutor.org? Какой новый адрес рутор? Какое зеркало рутор? Не работает rutor.org и зеркала? Тогда наш торрент специально для вас. Rutor.in неофициальное зеркало rutor. В случае если у Вас заблокирован rutor или вдруг Вы не можете на него зайти, то Вы без труда сможете скачать бесплатно и без рекламы последние новинки кино, игр, сериалов и прочего у нас, на Rutor.in. Не нужно использовать прокси, чтобы зайти на рутор, достаточно воспользоваться нашим ресурсом. Все новые фильмы, игры, сериалы, книги и музыка за 2013 и 2014 годы через торрент бесплатно. Скачивайте фильмы в хорошем качестве, игры для пк, xbox, playstation без регистрации. У нас вы найдете новые Зарубежные сериалы и Русские сериалы 2013, 2014, 2015 годов. Оставайтесь с нами, качайте любимые фильмы, игры, сериалы, книги и музыку.
cron