img image001 image001 image001 image001 image001 image001 image001 image001 image001 image001 image001 image001 image001 image001 image001

Planets Sun Sun Sun
Статистика раздачи
Автор: Nickolas3434 | Размер: 4.34 ГБ | Добавлен: 17 мар 2015
Раздают: 277    Качают: 9
Скачать торрент
Скачать торрент
Описание торрента

СообщениеДобавлено: 17 мар 2015 

Информация о фильме
Название: Д'Артаньян и три мушкетера
Год выхода: 1979
Жанр: Приклюения, Музыкальный
Продолжительность: 04:08:36
Режиссер: Георгий Юнгвальд-Хилькевич
Сценарий: Марк Розовский
Композитор: Максим Дунаевский
В ролях: Михаил Боярский, Игорь Старыгин, Вениамин Смехов, Валентин Смирнитский, Лев Дуров, Олег Табаков, Алиса Фрейндлих, Маргарита Терехова, Елена Цыплакова, Ирина Алферова, Юрий Шерстнев, Александр Трофимов, Борис Клюев, Юрий Дубровин, Леонид Каневский, Инга Третьякова, Владимир Балон, Алексей Кузнецов, Анатолий Ходюшин, Иосиф Кринский, Ольга Матешко, Мария Ярыгина, Евгений Данчевский, Владимир Долинский, Виктор Павловский, Валентина Клименко, Геннадий Макоев, Елена Мелентьева, Валентин Букин, Георгий Юнгвальд-Хилькевич
О фильме: Четверо друзей-мушкетеров спасают честь королевы Франции, вступают в единоборство со всесильным кардиналом Ришелье и коварной Миледи, а главное - наслаждаются жизнью...
Доп.информация: Данный рип 3-х-серийного фильма сделан одним файлом. Исходник - второе TWISTER-овское издание DVD9+DVD5 (коллекционное издание). Фильм выпускался на DVD целых 5 раз

Страна: СССР
Студия: Одесская киностудия
Перевод: Не требуется (оригинальный)
Файл
Формат: avi
Качество: DVDRip (DVD9+DVD5)
Видео: XviD, 704x528, 25fps, 2106kbps
Аудио: AC3 Dolby Digital, 6ch, 48000Hz, 384kbps

General
Complete name : Dartanyan.I.Tri.Mushketera.1979.O.DVDRip.4200.MediaClub.CurHaJI.avi
Format : AVI
Format/Info : Audio Video Interleave
Format profile : OpenDML
File size : 4.34 GiB
Duration : 4h 8mn
Overall bit rate : 2 500 Kbps
Movie name : Dartanyan.I.Tri.Mushketera.1979.O.DVDRip.4200.MediaClub.CurHaJI
Writing application : Lavf53.13.0
Writing library : VirtualDub build 35491/release
Video
ID : 0
Format : MPEG-4 Visual
Format profile : Advanced Simple@L5
Format settings, BVOP : 1
Format settings, QPel : No
Format settings, GMC : No warppoints
Format settings, Matrix : Custom
Codec ID : XVID
Codec ID/Hint : XviD
Duration : 4h 8mn
Bit rate : 2 106 Kbps
Width : 704 pixels
Height : 528 pixels
Display aspect ratio : 4:3
Frame rate : 25.000 fps
Color space : YUV
Chroma subsampling : 4:2:0
Bit depth : 8 bits
Scan type : Progressive
Compression mode : Lossy
Bits/(Pixel*Frame) : 0.227
Stream size : 3.66 GiB (84%)
Writing library : XviD 1.2.1 (UTC 2008-12-04)
Audio
ID : 1
Format : AC-3
Format/Info : Audio Coding 3
Mode extension : CM (complete main)
Format settings, Endianness : Big
Codec ID : 2000
Duration : 4h 8mn
Bit rate mode : Constant
Bit rate : 384 Kbps
Channel(s) : 6 channels
Channel positions : Front: L C R, Side: L R, LFE
Sampling rate : 48.0 KHz
Bit depth : 16 bits
Compression mode : Lossy
Stream size : 683 MiB (15%)
Alignment : Aligned on interleaves
Interleave, duration : 40 ms (1.00 video frame)
Interleave, preload duration : 512 ms



Релиз от:



   Похожие торренты   Торрент   Размер 
В этой теме нет новых непрочитанных сообщений. Д'Артаньян и три мушкетера (1979) DVDRip от MediaClub

74 | 5

2.9 ГБ

В этой теме нет новых непрочитанных сообщений. Д`Артаньян и три мушкетера (1979) DVDRip от MediaClub

371 | 38

1.46 ГБ

В этой теме нет новых непрочитанных сообщений. Д`Артаньян и три мушкетера (1979) DVDRip

123 | 62

4.37 ГБ

В этой теме нет новых непрочитанных сообщений. Д`Артаньян и три мушкетера (1979) DVDRip от New-Team

86 | 11

3.64 ГБ

В этой теме нет новых непрочитанных сообщений. Д`Артаньян и три мушкетера (1979) DVDRip от New-Team

100 | 8

2.18 ГБ

В этой теме нет новых непрочитанных сообщений. Д`Артаньян и три мушкетера (1979) DVDRip-AVC от New-Team

28 | 7

3.63 ГБ

В этой теме нет новых непрочитанных сообщений. Д`Артаньян и три мушкетера (1979) DVDRip-AVC от ExKinoRay

242 | 67

6.18 ГБ




Вы не можете начинать темы
Вы не можете отвечать на сообщения
Вы не можете редактировать свои сообщения
Вы не можете удалять свои сообщения
Вы не можете добавлять вложения

Перейти:  
Для Мосгорсуда, Роскомнадзора и рекламодателей: mosgorsud-torrent[собачка]yandex.ru
 Вход
ppkBB3cker v.2 © 2008-2014 @ PPK
[ Time : 0.026s | 14 Queries | GZIP : Off ]
CGP output time : 0.125s | 5 Queries | GZIP : Off

Торрент трекер RUTOR.IN, Не можете зайти на rutor.org? Какой новый адрес рутор? Какое зеркало рутор? Не работает rutor.org и зеркала? Тогда наш торрент специально для вас. Rutor.in неофициальное зеркало rutor. В случае если у Вас заблокирован rutor или вдруг Вы не можете на него зайти, то Вы без труда сможете скачать бесплатно и без рекламы последние новинки кино, игр, сериалов и прочего у нас, на Rutor.in. Не нужно использовать прокси, чтобы зайти на рутор, достаточно воспользоваться нашим ресурсом. Все новые фильмы, игры, сериалы, книги и музыка за 2013 и 2014 годы через торрент бесплатно. Скачивайте фильмы в хорошем качестве, игры для пк, xbox, playstation без регистрации. У нас вы найдете новые Зарубежные сериалы и Русские сериалы 2013, 2014, 2015 годов. Оставайтесь с нами, качайте любимые фильмы, игры, сериалы, книги и музыку.