img image001 image001 image001 image001 image001 image001 image001 image001 image001 image001 image001 image001 image001 image001 image001

Planets Sun Sun Sun
Статистика раздачи
Автор: Nickolas3434 | Размер: 744.13 МБ | Добавлен: 19 мар 2015
Раздают: 128    Качают: 7
Скачать торрент
Скачать торрент
Описание торрента

СообщениеДобавлено: 19 мар 2015 

Информация о фильме
Название: Любит не любит
Год выхода: 2014
Жанр: Комедия
Режиссер: Клим Шипенко
В ролях: Максим Матвеев, Светлана Ходченкова, Любовь Новикова (II), Екатерина Васильева, Сергей Газаров, Александр Ратников, Юрий Колокольников, Олег Комаров (II), Александр Самойленко, Максим Виторган, Сергей Баталов, Любовь Толкалина, Станислав Бондаренко
О фильме:
«Любит, не любит, любит…».. пресловутые слова и ромашка позволяют в детстве определиться с чувствами к противоположному полу… Но Леша уже успешный и взрослый молодой человек, да и выбор предстоит весьма серьёзный. На одном лепестке ромашки - невеста Алена, со своими банальными и простыми мечтами, готовая стать женой, с которой казалось бы жизнь – это сказка. А другой лепесток – это случайно встреченная журналистка Ирина, способная создать вихрь событий в любой ситуации… Который из лепестков останется на ромашке? Может помогут советами друзья? Или родственники? Или его Величество случай….
Страна: Россия
Студия: Патриот Продакшнс, Yellow, Black & White
Продолжительность: 01:18:22
Перевод: Не требуется
Файл
Кодек: XviD
Качество: HDTVRip Исходник
Видео: 640x336 (1.90:1), 25 fps, XviD build 73 ~1189 kbps avg, 0.22 bit/pixel
Звук: 48 kHz, MPEG Layer 3, 2 ch, ~128.00 kbps avg
Субтитры: Нет
Семпл
Общее
Полное имя : D:ТоррентМои рипыЛюбит не любитLybit.ne.lybit.2014.HDTVRip. от Шкипер.avi
Формат : AVI
Формат/Информация : Audio Video Interleave
Размер файла : 744 Мбайт
Продолжительность : 1 ч. 18 м.
Общий поток : 1327 Кбит/сек
Программа кодирования : VirtualDubMod 1.5.10.3 | www.virtualdub-fr.org || (build 2550/release)
Библиотека кодирования : VirtualDubMod build 2550/release
Видео
Идентификатор : 0
Формат : MPEG-4 Visual
Профиль формата : Advanced Simple@L5
Параметр BVOP формата : 1
Параметр QPel формата : Нет
Параметр GMC формата : Без точки перехода
Параметр матрицы формата : Default (MPEG)
Идентификатор кодека : XVID
Идентификатор кодека/Подсказка : XviD
Продолжительность : 1 ч. 18 м.
Битрейт : 1190 Кбит/сек
Ширина : 640 пикселей
Высота : 336 пикселей
Соотношение сторон : 1,905
Частота кадров : 25,000 кадров/сек
Цветовое пространство : YUV
Субдискретизация насыщенности : 4:2:0
Битовая глубина : 8 бит
Тип развёртки : Прогрессивная
Метод сжатия : С потерями
Бит/(Пиксели*Кадры) : 0.221
Размер потока : 667 Мбайт (90%)
Библиотека кодирования : XviD 73
Аудио
Идентификатор : 1
Формат : MPEG Audio
Версия формата : Version 1
Профиль формата : Layer 3
Режим : Joint stereo
Расширение режима : MS Stereo
Идентификатор кодека : 55
Идентификатор кодека/Подсказка : MP3
Продолжительность : 1 ч. 18 м.
Вид битрейта : Постоянный
Битрейт : 128 Кбит/сек
Каналы : 2 канала
Частота : 48,0 КГц
Метод сжатия : С потерями
Размер потока : 71,8 Мбайт (10%)
Выравнивание : Соединение по промежуткам
Продолжительность промежутка : 40 мс. (1,00 видеокадр)
Время предзагрузки промежутка : 504 мс.
Библиотека кодирования : LAME3.99r
Настройки программы : -m j -V 4 -q 2 -lowpass 17 -b 128

Релиз от:



   Похожие торренты   Торрент   Размер 
В этой теме нет новых непрочитанных сообщений. Любит не любит (2014) HDTVRip 720p от MediaClub

397 | 22

2.43 ГБ

В этой теме нет новых непрочитанных сообщений. Любит не любит (2014) HDTVRip от GeneralFilm

598 | 34

1.1 ГБ

В этой теме нет новых непрочитанных сообщений. Любит не любит (2014) DVDRip от UNIONGANG | Лицензия

3158 | 290

1.37 ГБ

В этой теме нет новых непрочитанных сообщений. Любит не любит (2014) WEB-DLRip от Scarabey | iTunes

4796 | 185

1.45 ГБ

В этой теме нет новых непрочитанных сообщений. Любит не любит (2014) WEB-DLRip от ELEKTRI4KA | iTunes

3463 | 109

746.74 МБ

В этой теме нет новых непрочитанных сообщений. Любит не любит (2014) HDTV 1080i от GeneralFilm

220 | 16

5.4 ГБ

В этой теме нет новых непрочитанных сообщений. Любит не любит (2014) WEB-DLRip от Scarabey | iTunes

1976 | 117

743.26 МБ




Вы не можете начинать темы
Вы не можете отвечать на сообщения
Вы не можете редактировать свои сообщения
Вы не можете удалять свои сообщения
Вы не можете добавлять вложения

Перейти:  
Для Мосгорсуда, Роскомнадзора и рекламодателей: mosgorsud-torrent[собачка]yandex.ru
 Вход
ppkBB3cker v.2 © 2008-2014 @ PPK
[ Time : 0.017s | 16 Queries | GZIP : Off ]

Торрент трекер RUTOR.IN, Не можете зайти на rutor.org? Какой новый адрес рутор? Какое зеркало рутор? Не работает rutor.org и зеркала? Тогда наш торрент специально для вас. Rutor.in неофициальное зеркало rutor. В случае если у Вас заблокирован rutor или вдруг Вы не можете на него зайти, то Вы без труда сможете скачать бесплатно и без рекламы последние новинки кино, игр, сериалов и прочего у нас, на Rutor.in. Не нужно использовать прокси, чтобы зайти на рутор, достаточно воспользоваться нашим ресурсом. Все новые фильмы, игры, сериалы, книги и музыка за 2013 и 2014 годы через торрент бесплатно. Скачивайте фильмы в хорошем качестве, игры для пк, xbox, playstation без регистрации. У нас вы найдете новые Зарубежные сериалы и Русские сериалы 2013, 2014, 2015 годов. Оставайтесь с нами, качайте любимые фильмы, игры, сериалы, книги и музыку.
cron